<?xml version="1.0" standalone="no"?>
<!DOCTYPE svg PUBLIC "-//W3C//DTD SVG 1.1//EN" "http://www.w3.org/Graphics/SVG/1.1/DTD/svg11.dtd" >
<svg xmlns="http://www.w3.org/2000/svg">
<metadata>
This is a custom SVG webfont generated by Font Squirrel.
Copyright   : Copyright c Andrew Paglinawan 2008 All rights reserved
Designer    : Andrew Paglinawan
Foundry     : Andrew Paglinawan
</metadata>
<defs>
<font id="QuicksandLight" horiz-adv-x="1255" >
<font-face units-per-em="2048" ascent="1638" descent="-410" />
<missing-glyph horiz-adv-x="614" />
<glyph unicode=" "  horiz-adv-x="614" />
<glyph unicode="&#x09;" horiz-adv-x="614" />
<glyph unicode="&#xa0;" horiz-adv-x="614" />
<glyph unicode="!" horiz-adv-x="516" d="M190 27v49q0 25 27 24q8 0 16.5 -7t8.5 -17v-49q0 -27 -25 -27q-27 0 -27 27zM190 342v1065q0 27 27 27q25 0 25 -27v-1065q0 -25 -25 -25q-27 0 -27 25z" />
<glyph unicode="&#x22;" horiz-adv-x="839" d="M143 944l62 440q8 53 57 54h39q33 0 33 -35q0 -2 -10 -49l-117 -412q-12 -37 -35 -37q-35 0 -29 39zM512 944l61 440q8 53 58 54h39q33 0 32 -35q0 -2 -10 -49l-117 -412q-12 -37 -34 -37q-35 0 -29 39z" />
<glyph unicode="#" horiz-adv-x="1433" d="M92 436q0 29 49 29h244l84 524h-246q-49 0 -49 27q0 29 49 28h262l58 359q6 39 18 43q6 2 12 2q23 0 27 -19.5t-2 -39.5l-55 -345h465l57 359q6 39 18 43q6 2 13 2q23 0 26.5 -19.5t-2.5 -39.5l-55 -345h225q49 0 49 -26q0 -29 -49 -29h-241l-84 -524h243q49 0 49 -27 q0 -29 -49 -28h-260l-59 -367q-6 -39 -19 -43q-6 -2 -12 -2q-23 0 -27 19.5t3 39.5l57 353h-465l-59 -367q-6 -39 -19 -43q-6 -2 -12 -2q-23 0 -27 19.5t2 39.5l58 353h-228q-49 -1 -49 26zM442 465h465l84 524h-465z" />
<glyph unicode="$" horiz-adv-x="1294" d="M133 236q16 16 33 2q223 -180 465 -197v688q-199 39 -316 117q-141 94 -141 239q2 145 134 248t323 113v55q0 39 10 43q4 2 10 2q25 0 25 -45v-55q82 -2 168 -32t135 -58.5t123 -77.5q20 -12 6 -33q-10 -18 -31 -6q-74 49 -121 75.5t-125.5 54.5t-154.5 30v-631 q233 -47 358 -127q152 -100 152 -258q-2 -162 -151.5 -273.5t-358.5 -115.5v-49q0 -45 -25 -45q-6 0 -9 1t-5 4t-4 5t-2 7v8v9v11v49q-258 16 -494 207q-20 17 -4 35zM221 1085q0 -119 121 -200q100 -70 289 -109v623q-168 -10 -285 -94q-125 -93 -125 -220zM676 41 q190 2 325 102q137 100 138 240q0 129 -131 219q-109 74 -332 119v-680z" />
<glyph unicode="&#x26;" horiz-adv-x="1425" d="M100 459q0 125 61.5 230.5t164.5 166.5q-106 100 -107 246q0 137 97.5 234.5t232.5 97.5q139 0 236.5 -97.5t97.5 -234.5q0 -27 -27 -27q-10 0 -18.5 8.5t-8.5 18.5q0 117 -81.5 198.5t-198.5 81.5q-115 0 -196 -81.5t-81 -198.5q0 -147 117 -230l2 -4q2 -4 4 -4l2 -2 q6 -20 -10 -31q-6 -6 -12 -6q-100 -53 -161.5 -151.5t-61.5 -214.5q0 -168 118.5 -288t288.5 -120t290 119t120 289q0 55 -17 114h-12q-27 4 -72 5q-178 0 -256 -74q-49 -49 -49 -127q0 -8 1 -21.5t1 -17.5l2 -12q8 -23 -14 -35h-8q-16 0 -27 18q-8 29 -8 68q0 100 65 164 q94 88 293 88q47 0 74 -2h12q55 0 97 28q39 31 45 99q0 14 -9 59q-4 8 2.5 18.5t16.5 12.5q29 4 31 -21q8 -31 8 -69q2 -92 -64 -142q-35 -29 -75 -34q14 -55 14 -119q0 -190 -134 -324.5t-327 -134.5q-190 0 -324.5 134.5t-134.5 324.5z" />
<glyph unicode="'" horiz-adv-x="471" d="M143 944l62 440q8 53 57 54h39q33 0 33 -35q0 -2 -10 -49l-117 -412q-12 -37 -35 -37q-35 0 -29 39z" />
<glyph unicode="(" horiz-adv-x="880" d="M145 620.5q0 354.5 99 571.5q113 250 342 248q31 0 30 -29q0 -12 -9 -21.5t-21 -9.5q-188 0 -287 -213q-94 -203 -94 -547t94 -544q100 -215 287 -215q31 0 30 -29q0 -12 -9 -21.5t-21 -9.5q-229 0 -342 250q-99 215 -99 569.5z" />
<glyph unicode=")" horiz-adv-x="880" d="M123 -168q0 29 31 29q186 0 286 215q94 201 94.5 545t-94.5 546q-98 213 -286 213q-12 0 -21.5 9.5t-9.5 21.5q0 29 31 29q229 2 342 -248q98 -217 98 -571.5t-98 -569.5q-113 -250 -342 -250q-12 0 -21.5 9.5t-9.5 21.5z" />
<glyph unicode="*" horiz-adv-x="880" d="M156 995q0 27 28 39l211 101l-211 100q-29 14 -28 39q0 39 41 43q14 0 32 -12l187 -127l-17 223q-2 18 10.5 31.5t31 13.5t30.5 -13.5t10 -31.5l-16 -223l186 127q18 12 33 12q16 0 28.5 -13.5t12.5 -29.5q0 -27 -29 -39l-211 -100l211 -101q29 -12 29 -39 q0 -16 -12.5 -29.5t-28.5 -13.5q-14 0 -33 13l-186 127l16 -224q2 -18 -10 -31.5t-30.5 -13.5t-31 13.5t-10.5 31.5l17 224l-187 -127q-18 -12 -32 -13q-16 0 -28.5 13.5t-12.5 29.5z" />
<glyph unicode="+" horiz-adv-x="1269" d="M131 707q0 35 37 34h432v435q0 35 37 34q12 0 23.5 -10t11.5 -24v-435h434q12 0 23.5 -10t11.5 -24.5t-11.5 -25.5t-23.5 -11h-434v-432q0 -14 -11.5 -25.5t-23.5 -11.5q-37 0 -37 37v432h-432q-37 0 -37 37z" />
<glyph unicode="," horiz-adv-x="471" d="M111 -184q0 16 16 26q104 57 96 158q-55 14 -55 72v43q0 29 19.5 48t48 19t48 -19.5t19.5 -47.5v-52q0 -158 -55 -213q-66 -66 -107 -65q-30 0 -30 31z" />
<glyph unicode="-" horiz-adv-x="835" d="M135 715q0 23 21 22h467q18 0 18 -22q0 -18 -18 -19h-467q-21 1 -21 19z" />
<glyph unicode="." horiz-adv-x="471" d="M168 53.5q0 28.5 20.5 49t49 20.5t49 -20.5t20.5 -49t-20.5 -49t-49 -20.5t-49 20.5t-20.5 49z" />
<glyph unicode="/" horiz-adv-x="864" d="M156 37l579 1376q4 10 14.5 14.5t18.5 -0.5q25 -8 16 -32l-583 -1379q-4 -16 -23 -16q-8 0 -10 2q-22 10 -12 35z" />
<glyph unicode="0" horiz-adv-x="1454" d="M133 719q0 293 141.5 503t346.5 212q207 -2 348 -212t141 -503q0 -295 -140.5 -506t-348.5 -213q-205 2 -346.5 213t-141.5 506zM184 719q0 -276 133 -475q125 -193 304 -193q180 0 305 193q133 193 133 475q0 279 -133 471q-125 193 -305 192q-178 0 -304 -192 q-133 -199 -133 -471z" />
<glyph unicode="1" horiz-adv-x="686" d="M68 1221q-12 23 10 34l287 170q23 16 36 -8q10 -23 -12 -35l-287 -172q-4 -2 -12 -2q-18 1 -22 13zM352 27v1378q0 10 8.5 18.5t16.5 8.5q27 0 26 -27v-1378q0 -27 -26 -27q-10 0 -17.5 8.5t-7.5 18.5z" />
<glyph unicode="2" horiz-adv-x="1208" d="M98 10q-16 18 2 37l693 625q135 125 135 303q0 154 -107 272q-123 135 -301 135q-156 0 -274 -106l-72 -66q-20 -16 -37 0q-8 8 -7 19.5t9 17.5l72 68q133 119 309 119q203 0 340 -150q119 -135 119 -309q0 -205 -154 -340l-643 -584h772q25 0 25 -24q0 -10 -7 -18.5 t-18 -8.5h-827h-6h-2q-17 0 -21 10z" />
<glyph unicode="3" horiz-adv-x="1249" d="M156 141q-18 18 0 37t37 0q127 -123 299 -123q178 0 301 125q125 123 125 301q0 174 -123 299q-127 123 -299 123q-16 0 -25 12l-2 3q-18 20 0 38l414 426h-633q-27 0 -27 27t27 27h694q27 0 27 -27q0 -8 -2 -12q-4 -8 -6 -11l-422 -432q174 -16 290 -137 q139 -139 139.5 -335.5t-139.5 -340.5q-143 -139 -337 -139h-2q-199 0 -336 139z" />
<glyph unicode="4" horiz-adv-x="1359" d="M104 346l865 1075l4 4q10 6 16 7q12 0 21 -13l2 -2q0 -4 2 -4l2 -2v-4v-4v-1047h125q27 0 26 -24q0 -27 -26 -27h-125v-278q0 -27 -27 -27q-10 0 -18 8t-8 19v278h-834h-4q-6 0 -16 6q-19 19 -5 35zM178 356h785v971z" />
<glyph unicode="5" horiz-adv-x="1239" d="M125 803l72 604q4 18 18 23q8 4 14 4h693q10 0 18 -8.5t8 -18.5q0 -27 -26 -27h-674l-62 -520q125 94 285 94q201 0 340 -139q137 -141 137 -336q0 -201 -141 -338q-139 -141 -338 -141q-195 0 -336 141q-20 16 0 37q18 18 37 0q129 -125 299 -125q176 0 301 125t125 301 t-125 299q-123 123 -299 123q-172 0 -301 -123q-4 -8 -15.5 -8t-19.5 6q-4 0 -4 4l-2 2q-6 11 -4 21z" />
<glyph unicode="6" horiz-adv-x="1314" d="M131 547q0 336 139 577q168 295 498 310q27 0 27 -27q0 -25 -23 -25q-295 -14 -457 -282q-102 -174 -127 -422q57 115 168 182.5t244 67.5q193 0 329 -135.5t138 -327.5q-2 -193 -138 -329t-329 -136q-180 0 -311 118t-150 294q-2 2 -2 8q-6 61 -6 127zM188 465 q0 -172 121 -293t291 -121q172 0 292 121t124 293q-4 172 -124 292t-292 120q-170 0 -291 -121t-121 -291z" />
<glyph unicode="7" horiz-adv-x="1202" d="M131 1405q0 10 8 18.5t19 8.5h798q10 0 18.5 -9.5t8.5 -17.5q0 -6 -8 -19l-578 -1370q-4 -16 -22 -16h-4q-4 2 -6 2q-23 10 -15 35l563 1341h-755q-27 0 -27 27z" />
<glyph unicode="8" horiz-adv-x="1290" d="M113 455q0 156 95 276.5t241 161.5q-74 35 -119 103.5t-45 152.5q0 119 83 202t201 83q117 0 200 -83t83 -202q0 -84 -45 -152.5t-117 -103.5q145 -41 240.5 -162t95.5 -276q0 -188 -134 -321.5t-322.5 -133.5t-322.5 133.5t-134 321.5zM164 455q0 -168 118.5 -286 t286.5 -118t287 118t119 286t-119 286.5t-287 118.5t-286.5 -118.5t-118.5 -286.5zM336 1149q0 -96 68.5 -163.5t164.5 -67.5q94 0 163 67.5t69 163.5t-67.5 163.5t-164.5 69.5q-96 -2 -164.5 -69.5t-68.5 -163.5z" />
<glyph unicode="9" horiz-adv-x="1314" d="M135 968.5q0 192.5 137.5 329t329.5 136.5q180 0 312.5 -123t148.5 -303q8 -51 8 -121q0 -334 -139 -578q-176 -295 -498 -309q-27 0 -26 27q-2 8 5 16t17 8q295 14 455 283q104 182 127 420q-57 -113 -168 -180.5t-242 -67.5q-193 0 -330 135t-137 327.5zM186 969 q0 -170 122 -291t294 -121q170 0 291 121t121 291q0 20 -2 30v9v2q-16 158 -133 265t-277 107q-172 0 -294 -120.5t-122 -292.5z" />
<glyph unicode=":" horiz-adv-x="491" d="M178 59v56q0 29 19.5 48t48 19t48 -19.5t19.5 -47.5v-56q0 -29 -19.5 -48t-48 -19t-48 19t-19.5 48zM178 930v55q0 29 19.5 48.5t48 19.5t48 -19.5t19.5 -48.5v-55q0 -29 -19.5 -48.5t-48 -19.5t-48 19.5t-19.5 48.5z" />
<glyph unicode=";" horiz-adv-x="491" d="M121 -184q0 16 16 26q104 57 96 158q-55 14 -55 72v43q0 29 19.5 48t48 19t48 -19.5t19.5 -47.5v-52q0 -158 -55 -213q-66 -66 -106 -65q-31 0 -31 31zM178 930v55q0 29 19.5 48.5t48 19.5t48 -19.5t19.5 -48.5v-55q0 -29 -19.5 -48.5t-48 -19.5t-48 19.5t-19.5 48.5z " />
<glyph unicode="&#x37e;" horiz-adv-x="491" d="M121 -184q0 16 16 26q104 57 96 158q-55 14 -55 72v43q0 29 19.5 48t48 19t48 -19.5t19.5 -47.5v-52q0 -158 -55 -213q-66 -66 -106 -65q-31 0 -31 31zM178 930v55q0 29 19.5 48.5t48 19.5t48 -19.5t19.5 -48.5v-55q0 -29 -19.5 -48.5t-48 -19.5t-48 19.5t-19.5 48.5z " />
<glyph unicode="&#x3c;" horiz-adv-x="1269" d="M123 717q2 6 6 14l4 4l2 2l676 684q23 23 45 0q14 -23 0 -45l-659 -663l659 -662q14 -23 0 -43q-8 -8 -25 -8q-12 0 -20 8l-676 682q-2 0 -2 2q-8 8 -8 13q-2 4 -2 12z" />
<glyph unicode="=" horiz-adv-x="1269" d="M162 500q0 33 31 32h700q12 0 21.5 -10t9.5 -22q0 -27 -31 -27h-700q-31 0 -31 27zM162 924q0 31 31 30h700q12 0 21.5 -9t9.5 -21q0 -10 -9.5 -17.5t-21.5 -7.5h-700q-31 0 -31 25z" />
<glyph unicode="&#x3e;" horiz-adv-x="1269" d="M190 8q-14 20 0 43l658 662l-658 663q-14 23 0 45q23 23 46 0l673 -684h2l2 -2q0 -2 1 -2t1 -2q2 -2 7 -10v-12v-4q-2 -2 -7 -11l-2 -2l-2 -2l-675 -682q-8 -8 -21 -8q-17 0 -25 8z" />
<glyph unicode="?" horiz-adv-x="1093" d="M84 1217q55 100 155.5 158.5t219.5 58.5q176 0 304 -127t128 -308q0 -172 -120 -296.5t-288 -135.5v-250q0 -10 -8 -17t-16 -7q-25 0 -25 24v269v4v2q0 25 25 24q156 0 268.5 113t112.5 270q0 160 -112 272.5t-269 112.5q-106 0 -194.5 -52t-139.5 -140q-14 -18 -33 -8 q-22 15 -8 33zM434 25v47q0 25 25 24q8 0 16 -7t8 -17v-47q0 -25 -24.5 -25t-24.5 25z" />
<glyph unicode="@" horiz-adv-x="2007" d="M109 717q0 297 209.5 508t506.5 211t508 -210t211 -509q0 -174 -80 -328q-6 -12 -20 -33.5t-58.5 -60.5t-95.5 -53q-8 0 -20.5 -1t-18.5 -1q-66 0 -96 49q-29 35 -29 82v155q-47 -84 -126.5 -133t-174.5 -49q-143 0 -247.5 110.5t-104.5 262.5q0 154 103.5 262t249 108 t248 -108.5t102.5 -261.5v-15v-6v-319q0 -31 20 -58q23 -27 55 -26q18 0 27 6q70 12 131 98l10 19q72 139 72 301q0 276 -194.5 470.5t-471.5 194.5q-274 0 -468.5 -194.5t-194.5 -470.5q0 -274 194.5 -469t468.5 -195q90 0 164 21q25 4 35 -19q4 -25 -20 -35 q-92 -20 -179 -20q-297 0 -506.5 210t-209.5 507zM526 717q0 -131 88 -225.5t211 -94.5t212 94.5t89 225.5q0 133 -89 227t-212 94t-211 -94t-88 -227z" />
<glyph unicode="A" horiz-adv-x="1323" d="M119 41l516 1376q5 17 20 17h7q16 0 26 -17l516 -1376q3 -7 3 -12q0 -14 -17 -23q-2 0 -6 -2h-2q-16 0 -27 19l-137 366h-717l-137 -366q-4 -18 -23 -19h-4q-4 2 -6 2q-15 7 -15 21q0 6 3 14zM322 442h675l-338 897z" />
<glyph unicode="B" horiz-adv-x="1216" d="M213 27v1380q0 27 27 27h4h323q143 0 244.5 -101.5t101.5 -242.5q0 -96 -48 -176t-130 -126q139 -27 231.5 -136t92.5 -253q0 -166 -116 -282.5t-281 -116.5h-418h-4q-27 0 -27 27zM264 51h398q143 0 243.5 101.5t100.5 246.5q0 141 -100.5 242.5t-243.5 101.5h-398v-692 zM264 799h303q121 0 206 85t87 206q-2 119 -87 204.5t-206 87.5h-303v-583z" />
<glyph unicode="C" horiz-adv-x="1579" d="M150 729q0 299 218 512t525 213q260 0 465 -158q14 -11 14 -22q0 -7 -6 -14q-23 -23 -39 -5q-188 145 -434 146q-285 0 -487.5 -196.5t-202.5 -475.5q0 -281 202.5 -478.5t487.5 -197.5q244 0 432 146q23 14 39 -4q7 -7 7 -15q0 -10 -13 -22q-211 -158 -465 -158 q-307 2 -525 215t-218 514z" />
<glyph unicode="D" horiz-adv-x="1472" d="M213 27v1380q0 27 27 27h2h272q297 0 507 -210t210 -505q0 -299 -210 -509t-507 -210h-272h-2q-27 0 -27 27zM264 51h250q276 4 470 197.5t196 470.5q-2 274 -195.5 468.5t-470.5 194.5h-250v-1331z" />
<glyph unicode="E" horiz-adv-x="1214" d="M213 27v1380q0 23 25 27h2h2h759q25 0 25 -27q0 -25 -25 -25h-737v-639h649q25 0 25 -24q0 -27 -25 -27h-649v-641h737q25 0 25 -24q0 -27 -25 -27h-757h-2h-4q-25 0 -25 27z" />
<glyph unicode="F" horiz-adv-x="1239" d="M213 27v1380q0 27 23 27h4h2h759q25 0 25 -27q0 -25 -25 -25h-739v-639h651q25 0 25 -24q0 -27 -25 -27h-651v-665q0 -27 -26 -27q-23 0 -23 27z" />
<glyph unicode="G" horiz-adv-x="1667" d="M150 741q0 303 222 519.5t535 216.5q268 0 471 -160q13 -9 13 -22q0 -9 -7 -19q-18 -23 -38 -2q-190 152 -439 151q-291 0 -497.5 -200.5t-206.5 -483.5q0 -285 205.5 -486.5t498.5 -201.5q238 0 428 142v485h-440q-10 0 -18.5 8t-8.5 17q0 12 8.5 20t18.5 8h465h4 q25 0 25 -28v-521q0 -4 -3 -6v-4q-2 -10 -8 -14q-207 -160 -471 -160q-313 2 -535 218t-222 523z" />
<glyph unicode="H" horiz-adv-x="1452" d="M213 27v1380q0 27 27 27q10 0 17 -8.5t7 -18.5v-664h815v664q0 27 25 27q27 0 26 -27v-1380q0 -27 -26 -27q-25 0 -25 27v665h-815v-665q0 -10 -7 -18.5t-17 -8.5q-27 0 -27 27z" />
<glyph unicode="I" horiz-adv-x="624" d="M227 27v1380q0 27 27 27q25 0 25 -27v-1380q0 -27 -25 -27q-27 0 -27 27z" />
<glyph unicode="J" horiz-adv-x="1216" d="M92 332q-2 4 -2 8.5t2 9.5q4 10 14 15q25 6 35 -17q41 -131 153 -214t251 -83q176 4 301 128t127 300v928q0 27 22 27q27 0 27 -27v-928q0 -199 -139.5 -339t-337.5 -140q-158 0 -282 93.5t-171 238.5z" />
<glyph unicode="K" horiz-adv-x="1464" d="M213 27v1378q0 27 27 27q10 0 18 -9.5t8 -17.5v-922l940 940q10 8 19.5 8.5t17.5 -8.5q9 -9 9 -18t-9 -19l-586 -585l588 -756q8 -11 8 -19q0 -10 -10 -18q-8 -8 -16 -8q-6 0 -21 10l-585 754l-351 -352l-4 -4v-381q0 -10 -8 -18.5t-18 -8.5q-27 0 -27 27z" />
<glyph unicode="L" horiz-adv-x="1153" d="M213 27v1380q0 27 27 27q25 0 24 -27v-1356h740q27 0 26 -24q0 -27 -26 -27h-760h-4q-27 0 -27 27z" />
<glyph unicode="M" horiz-adv-x="1728" d="M213 27v1378q0 10 8 18.5t19 8.5q4 0 6 -2q6 0 18 -9l549 -762l549 762q8 8 16 9q2 2 6 2q27 0 27 -27v-1378q0 -27 -27 -27q-10 0 -17 8t-7 19v1302l-522 -727q-10 -10 -23 -10h-4q-16 0 -23 10l-524 729v-1304q0 -27 -24 -27q-27 0 -27 27z" />
<glyph unicode="N" horiz-adv-x="1579" d="M213 27v1370v6q0 12 10 22q10 5 18 6q11 0 19 -10l946 -1315v1291q0 10 8.5 18t18.5 8q25 0 24 -26v-1370q0 -27 -24 -27q-18 0 -25 16q-2 0 -2 2l-942 1309v-1300q0 -27 -24 -27q-10 0 -18.5 8.5t-8.5 18.5z" />
<glyph unicode="O" horiz-adv-x="1740" d="M150 715q2 307 204.5 523t493.5 216q289 0 492.5 -216t207.5 -523q-4 -309 -206.5 -525.5t-493.5 -216.5t-493.5 216.5t-204.5 525.5zM205 715q0 -283 188.5 -482.5t454.5 -203.5q264 4 452.5 203.5t190.5 482.5q-2 285 -190.5 485.5t-452.5 200.5t-453.5 -200.5 t-189.5 -485.5z" />
<glyph unicode="P" horiz-adv-x="1193" d="M213 27v1380q0 27 27 27h4h415q164 0 282 -117t118 -283t-117 -281.5t-283 -115.5h-395v-610q0 -27 -24 -27q-27 0 -27 27zM264 690h395q143 0 245 100.5t102 244t-101.5 245.5t-245.5 102h-395v-692z" />
<glyph unicode="Q" horiz-adv-x="1728" d="M135 725q2 301 203 515t481 214q285 0 486.5 -214t201.5 -515q0 -221 -118.5 -404.5t-309.5 -267.5l-293 -137q121 0 213 -57q188 -111 332 -111q147 0 285 111q20 16 37 -4q7 -8 7 -17q0 -11 -11 -22q-154 -119 -318 -119q-160 0 -356 117q-84 51 -189 51 q-102 0 -200 -43l-13 -8q-20 -6 -30 2l-6 6q-4 6 -7 8q-12 25 15 35l293 137h-19q-281 0 -481.5 212t-202.5 511zM190 725q0 -279 185.5 -475.5t443.5 -196.5q264 0 450.5 196.5t186.5 475.5q0 283 -186.5 478.5t-450.5 195.5q-258 0 -443.5 -196.5t-185.5 -477.5z" />
<glyph unicode="R" horiz-adv-x="1280" d="M184 27v1380q0 27 27 27h2h2h416q164 0 281.5 -117t117.5 -283q0 -135 -80 -240.5t-207 -140.5q37 -14 74 -37q186 -106 187 -307q0 -147 30 -209q16 -25 31 -24h4q27 4 31 -19q2 -7 2 -12q0 -16 -19 -18q-2 -4 -18 -4q-45 0 -74 55q-39 66 -39 231q0 129 -102 221 q-59 53 -172 95l-53 12h-389v-610q0 -27 -25 -27q-27 0 -27 27zM236 690h395h4q141 2 241.5 101.5t100.5 243t-101.5 245.5t-244.5 102h-395v-692z" />
<glyph unicode="S" horiz-adv-x="1366" d="M141 244q16 16 33 2q246 -197 498 -197q199 0 338 103q137 100 137 239q0 129 -131 219q-119 82 -348 121l-4 2q-219 39 -340 121q-141 94 -142 240q2 152 144.5 256t341.5 104q86 0 175 -29.5t139 -58.5t128 -80q20 -12 6 -33q-10 -18 -31 -6q-80 51 -126 78 t-128.5 54.5t-162.5 27.5q-182 0 -314 -94q-125 -92 -125 -219q0 -119 121 -201q109 -76 322 -115h4q240 -47 366 -129q152 -100 152 -258q-2 -164 -154.5 -276.5t-367.5 -112.5q-270 0 -527 207q-11 9 -11 19q0 8 7 16z" />
<glyph unicode="T" horiz-adv-x="1327" d="M102 1407q0 27 27 27h997q27 0 27 -27q0 -25 -27 -25h-471v-1355q0 -10 -8 -18.5t-18 -8.5q-27 0 -27 27v1355h-473q-27 0 -27 25z" />
<glyph unicode="U" horiz-adv-x="1667" d="M215 575v832q0 27 27 27q25 0 24 -27v-832q0 -217 152.5 -368.5t369.5 -155.5q215 4 368 155.5t155 368.5v832q0 27 26 27q10 0 18.5 -8.5t8.5 -18.5v-832q0 -240 -169 -407.5t-406.5 -167.5t-405.5 167.5t-168 407.5z" />
<glyph unicode="V" horiz-adv-x="1536" d="M121 1395q-4 8 -4 14q0 13 16 18q7 3 13 4q14 0 24 -16l555 -1321l557 1321q5 16 18 17q6 0 15 -5q17 -5 16 -20q0 -6 -2 -12l-579 -1379l-2 -2q-2 -10 -13 -12h-2q-2 -2 -8 -2h-2h-4l-4 2q-2 0 -6 4q-4 2 -9 10z" />
<glyph unicode="W" horiz-adv-x="2256" d="M129 1414q4 9 14 13q8 4 14 5q13 0 21 -17l555 -1323l402 952q6 18 26 19q18 4 29 -19l399 -952l557 1323q10 15 24 15q5 0 11 -3q18 -6 18 -18q0 -6 -4 -14l-579 -1379q-2 -2 -4 -5t-4 -5l-4 -2q-8 -4 -13 -4h-2h-2q-4 0 -6 2h-2q-10 2 -14 16l-402 961l-405 -963 q-4 -10 -15 -14h-2q-2 -2 -6 -2h-2q-6 0 -8 2h-2q-2 0 -6 4q-2 0 -2 2q-6 6 -6 12l-578 1375q-4 6 -4 12q0 3 2 7z" />
<glyph unicode="X" horiz-adv-x="1478" d="M158 41l491 674l-491 676q-7 9 -8 17q0 10 12 17q9 7 17 8q10 0 20 -12l481 -661l483 661q8 10 19 11q8 0 18 -7q11 -9 11 -19q0 -7 -5 -15l-493 -676l493 -674q4 -7 4 -14q0 -11 -10 -21q-8 -6 -16 -6q-4 0 -21 10l-483 662l-481 -662q-14 -10 -20.5 -10t-16.5 6 q-10 9 -11 19q1 8 7 16z" />
<glyph unicode="Y" horiz-adv-x="1236" d="M121 1391q-9 9 -9 16q0 10 15 18q8 7 16 8q10 0 19 -12l487 -669l486 669q10 10 20 11l16 -7q14 -10 14 -20q0 -7 -5 -14l-506 -691v-673q0 -27 -25 -27q-27 0 -26 27v673z" />
<glyph unicode="Z" horiz-adv-x="1366" d="M145 27q0 14 11 20l968 1331h-952q-27 0 -27 27t27 27h1006q27 0 26 -27v-6l-2 -4l-2 -4l-6 -7l-973 -1333h957q27 0 26 -24q0 -27 -26 -27h-1004h-2q-27 0 -27 27z" />
<glyph unicode="[" horiz-adv-x="880" d="M201 -213v1593q0 20 16 37t37 17h475q37 0 37 -29q0 -20 -37 -21h-477v-1601h477q37 0 37 -27q0 -23 -37 -22h-475q-20 0 -36.5 16.5t-16.5 36.5z" />
<glyph unicode="\" horiz-adv-x="917" d="M129 1397q-8 25 16 33q8 4 18.5 -0.5t14.5 -14.5l580 -1376q10 -25 -13 -35q-2 -2 -10 -2q-18 0 -22 16z" />
<glyph unicode="]" horiz-adv-x="880" d="M113 -244q0 27 37 27h477v1601h-477q-37 0 -37 21q0 29 37 29h475q23 0 38 -16.5t15 -37.5v-1593q0 -20 -15.5 -36.5t-37.5 -16.5h-475q-37 -1 -37 22z" />
<glyph unicode="^" horiz-adv-x="1024" d="M170 381q-4 25 8 33l367 280q27 20 45 20.5t45 -20.5l364 -280q18 -12 19 -43q0 -16 -11.5 -21.5t-24.5 -1.5t-26 14l-364 289l-369 -289q-12 -10 -33 -8q-16 2 -20 27z" />
<glyph unicode="_" horiz-adv-x="1228" d="M-49 -293q0 35 45 35h684q45 0 45 -35t-45 -35h-684q-45 0 -45 35z" />
<glyph unicode="`" horiz-adv-x="1024" d="M340 1450q0 2 2 11t9 14.5t26 5.5q33 0 57 -37l127 -191q8 -12 8 -22q0 -14 -14 -6q-33 12 -49 30l-146 158q-26 27 -20 37z" />
<glyph unicode="a" horiz-adv-x="1267" d="M82 502q0 207 138 354.5t335 147.5q135 0 249 -76t173 -201v250q0 27 27 27q25 0 24 -27v-950q0 -27 -24 -27q-27 0 -27 27v249q-59 -125 -173 -200.5t-249 -75.5q-197 0 -335 147.5t-138 354.5zM133 501.5q0 -186.5 124 -318.5t298 -132t298 132t124 318.5t-124 317.5 t-298 131t-298 -131t-124 -317.5z" />
<glyph unicode="b" horiz-adv-x="1351" d="M190 27v452v25v20v879q0 31 27 31q8 0 16.5 -10.5t8.5 -20.5v-676q61 125 177 201t255 76q203 0 345 -146.5t142 -353.5t-142 -355.5t-345 -148.5q-139 0 -255 76t-177 198v-247q0 -10 -7.5 -18.5t-17.5 -8.5q-27 0 -27 27zM242 504q0 -186 127 -319.5t305 -133.5 q180 0 308 133t128 319.5t-128 317.5t-308 131q-172 0 -299 -126t-133 -304v-18z" />
<glyph unicode="c" horiz-adv-x="1169" d="M119 502q0 207 151.5 354.5t364.5 147.5q182 0 319 -109q9 -9 9 -19q0 -9 -7 -20q-12 -16 -34 -2q-127 98 -287 98q-195 0 -330 -132t-135 -318.5t135 -318.5t330 -132q156 0 287 101q20 12 34 -7q7 -10 7 -18q0 -10 -9 -18q-141 -109 -319 -109q-213 2 -364.5 148.5 t-151.5 353.5z" />
<glyph unicode="d" horiz-adv-x="1351" d="M123 504q0 207 142.5 353.5t344.5 146.5q139 0 255 -76t177 -201v676q0 10 8.5 20.5t16.5 10.5q27 0 27 -31v-879v-20v-25v-452q0 -27 -27 -27q-10 0 -17.5 8t-7.5 19v247q-61 -123 -176.5 -198.5t-255.5 -75.5q-203 0 -345 148.5t-142 355.5zM174 503.5 q0 -186.5 128 -319.5t308 -133q178 0 305 133t127 320v18q-6 178 -133 304t-299 126q-180 0 -308 -131t-128 -317.5z" />
<glyph unicode="e" horiz-adv-x="1247" d="M119 502q4 209 145.5 355.5t341.5 146.5q190 0 328.5 -133.5t152.5 -329.5v-2v-4v-3q-4 -25 -24 -24h-893v-6q0 -184 128 -316.5t308 -134.5q113 0 208 55.5t153 149.5q12 16 37 6q20 -12 6 -35q-66 -102 -173.5 -164.5t-230.5 -62.5q-201 2 -342 148.5t-145 353.5z M172 557h864q-20 168 -143 280.5t-287 112.5q-166 0 -290 -112.5t-144 -280.5z" />
<glyph unicode="f" horiz-adv-x="741" d="M133 985q0 27 27 27h164v135q0 154 61 223q59 66 188 66q27 0 27 -25q0 -27 -27 -27q-106 0 -149 -49q-47 -51 -47 -188v-135h172q25 0 24.5 -27t-24.5 -27h-172v-929q0 -27 -26.5 -27t-26.5 27v929h-164q-27 0 -27 27z" />
<glyph unicode="g" horiz-adv-x="1351" d="M123 502q0 207 138 354.5t335 147.5q135 0 250 -76t172 -199v248q0 10 7 18.5t17 8.5q27 0 27 -27v-920q0 -197 -138 -336t-335 -139q-104 0 -209 49q-20 14 -10 35q10 18 35 12q90 -45 184 -45q176 4 299 127t123 297v219q-57 -123 -172 -199.5t-250 -76.5 q-197 0 -335 147.5t-138 354.5zM174 501.5q0 -186.5 124 -317.5t298 -131t298 131t124 317.5t-124 318.5t-298 132t-298 -132t-124 -318.5z" />
<glyph unicode="h" d="M190 23v4v569v16v795q0 27 27 27q25 0 25 -27v-614q53 96 148 153.5t208 57.5q168 0 287 -119t119 -289v-569q0 -10 -7.5 -18.5t-17.5 -8.5q-27 0 -27 27v569q0 147 -103.5 250.5t-250.5 103.5q-143 0 -246.5 -99t-109.5 -241v-583q0 -16 -11 -23q-8 -4 -10 -4h-4 q-8 0 -18 6q-9 9 -9 17z" />
<glyph unicode="i" horiz-adv-x="575" d="M193 27v952q0 25 26 25q25 0 25 -25v-952q0 -10 -7.5 -18.5t-17.5 -8.5q-26 0 -26 27zM193 1251v49q0 27 26 27q25 0 25 -27v-49q0 -10 -7.5 -17t-17.5 -7q-26 -1 -26 24z" />
<glyph unicode="j" horiz-adv-x="509" d="M-10 -393q0 29 24 28q43 0 74 31t31 76v1237q0 25 24 25q10 0 19.5 -8.5t9.5 -16.5v-1237q0 -66 -46 -112t-112 -46q-24 0 -24 23zM123 1255v50q0 27 27 26q10 0 19 -8t9 -18v-50q0 -10 -9 -17t-19 -7q-27 -1 -27 24z" />
<glyph unicode="k" horiz-adv-x="1146" d="M190 27v1380q0 27 27 27q10 0 17.5 -8.5t7.5 -18.5v-1063l659 660q16 16 37 0q9 -9 9 -18.5t-9 -18.5l-416 -416l416 -506q6 -9 6 -17q0 -11 -10 -22q-6 -6 -14 -6q-14 0 -21 10l-416 502l-235 -236q-4 -4 -6 -4v-245q0 -10 -7.5 -18.5t-17.5 -8.5q-27 0 -27 27z" />
<glyph unicode="l" horiz-adv-x="509" d="M205 27v1380q0 27 26 27q25 0 25 -27v-1380q0 -27 -25 -27q-26 0 -26 27z" />
<glyph unicode="m" horiz-adv-x="1947" d="M190 27v571q0 16 5 49v330q0 27 24.5 27t24.5 -27v-182q53 96 146 152.5t204 56.5q127 0 230.5 -73t146.5 -190q43 117 146.5 190t232.5 73q166 0 282.5 -119t116.5 -287v-571q0 -27 -25 -27q-10 0 -18 8t-8 19v571q0 147 -102.5 250.5t-246 103.5t-246 -99t-106.5 -241 v-14v-571q0 -6 -2 -9v-2l-2 -4q-2 -2 -2 -4q-8 -8 -20 -8q-25 0 -25 27v571q0 147 -103.5 250.5t-248.5 103.5q-141 0 -243.5 -99t-106.5 -241v-585q0 -6 -4 -15q-2 -2 -2 -4h-2l-3 -2q-6 -6 -14 -6h-6q-23 4 -23 27z" />
<glyph unicode="n" d="M190 23v4v571v16v365q0 25 27 25q25 0 25 -25v-184q53 94 147 151.5t207 57.5q166 0 284.5 -119t118.5 -287v-571q0 -27 -26 -27q-25 0 -25 27v571q0 147 -103.5 250.5t-248.5 103.5t-249.5 -103.5t-104.5 -250.5v-571q0 -10 -6 -17q-6 -10 -19 -10h-4h-4l-2 2q-2 2 -4 2 t-6 4q-2 2 -2 4q-5 5 -5 11z" />
<glyph unicode="o" horiz-adv-x="1280" d="M143 502q0 207 138.5 354.5t335 147.5t336 -147.5t139.5 -354.5t-139.5 -354.5t-336 -147.5t-335 147.5t-138.5 354.5zM195 501.5q0 -186.5 123.5 -318.5t298 -132t299 132t124.5 318.5t-124.5 318.5t-299 132t-298 -132t-123.5 -318.5z" />
<glyph unicode="p" horiz-adv-x="1351" d="M190 -412v899v21v20v449q0 27 27 27q25 0 25 -27v-248q59 125 174.5 200t253.5 75q203 0 343 -144.5t140 -351.5t-140.5 -352.5t-342.5 -145.5q-137 0 -253 75t-175 198v-695q0 -27 -25 -26q-27 -1 -27 26zM242 508q0 -184 126 -314.5t302 -130.5t303 130.5t127 314.5 q0 182 -127 313t-303 131q-170 0 -296 -125t-132 -301v-18z" />
<glyph unicode="q" horiz-adv-x="1351" d="M123 508q0 207 140 351.5t343 144.5q137 0 253 -75t175 -200v248q0 27 25 27q27 0 26 -27v-449v-20v-21v-899q0 -27 -26 -26q-25 0 -25 26v695q-59 -123 -175 -198t-253 -75q-203 0 -343 145.5t-140 352.5zM176 508q0 -184 127 -314.5t303 -130.5t302 130.5t126 314.5v18 q-6 176 -132 301t-296 125q-176 0 -303 -131t-127 -313z" />
<glyph unicode="r" horiz-adv-x="899" d="M193 27v469q-1 2 -1.5 5t1.5 7v469q0 10 7 18.5t17 8.5q25 0 25 -27v-340q29 68 63 119q166 248 400 248q27 0 26.5 -27t-26.5 -27q-168 0 -291 -137q-84 -96 -148 -248l-24 -69v-469q0 -27 -24.5 -27t-24.5 27z" />
<glyph unicode="s" horiz-adv-x="1007" d="M113 176q14 27 37 4q160 -129 331 -129q127 0 221 68q90 63 91 155q-2 84 -84 142q-84 53 -232 82h-6q-154 25 -233 82q-100 66 -101 170q2 109 102.5 181.5t239.5 72.5q133 0 303 -117q20 -14 9 -35q-14 -23 -37 -8q-53 35 -84 53t-85.5 36.5t-105.5 18.5 q-125 0 -209 -63q-80 -61 -80 -139q0 -76 76 -127q70 -47 217 -78h2q176 -35 252 -86q106 -72 107 -185q-2 -117 -108.5 -195.5t-254.5 -78.5q-190 0 -364 143q-11 7 -12 17q1 7 8 16z" />
<glyph unicode="t" horiz-adv-x="819" d="M86 977q0 27 27 27h172v401q0 27 24 27q27 0 27 -27v-401h164q27 0 26 -27q0 -25 -26 -25h-164v-798q0 -43 30.5 -74t73.5 -31q27 0 27 -24q0 -27 -27 -27q-63 0 -109 46t-46 110v798h-172q-27 0 -27 25z" />
<glyph unicode="u" d="M170 406v571q0 27 27 27q10 0 17 -8.5t7 -18.5v-571q0 -147 102.5 -251t248 -104t249 103.5t103.5 251.5v571q0 10 8 18.5t18 8.5q27 0 27 -27v-571q0 -168 -119 -287t-287 -119q-166 0 -283.5 119t-117.5 287z" />
<glyph unicode="v" horiz-adv-x="1191" d="M115 965q-3 6 -3 11q0 13 17 21q7 3 12 3q13 0 21 -17l377 -891l376 891q6 18 18 18q6 0 13 -4q19 -9 19 -22q0 -5 -2 -10l-400 -947q0 -4 -4 -8q-10 -10 -18 -10h-2h-7q-12 4 -18 16z" />
<glyph unicode="w" horiz-adv-x="1763" d="M125 965q-4 8 -4 13q0 13 18 19q8 4 14 4q13 0 21 -16l375 -893l268 639q6 18 29 14q14 0 24 -14l269 -639l377 893q6 15 19 16q6 0 13 -4q10 -4 15 -14q2 -5 2 -9.5t-2 -8.5l-400 -949q0 -6 -8 -10q-8 -6 -14 -6q-8 0 -13 2q-4 0 -8 4t-4 6q-2 0 -2 2v2l-270 643 l-271 -643q-6 -14 -18 -16h-8h-4q-2 0 -11 4q-10 6 -10 16z" />
<glyph unicode="x" horiz-adv-x="1167" d="M145 41l336 461l-336 459q-7 8 -7 15q0 10 12 19q9 5 16 5q12 0 20 -11l328 -446l322 446q12 12 22 12q7 0 14 -6q14 -10 14 -20q0 -7 -5 -14l-334 -459l334 -461q7 -9 6 -16q0 -11 -15 -19q-2 -6 -12 -6q-16 0 -24 10l-322 447l-328 -447q-8 -10 -20 -10q-10 0 -16 6 q-11 7 -12 17q0 8 7 18z" />
<glyph unicode="y" horiz-adv-x="1204" d="M106 406v571q0 27 27 27q10 0 17.5 -8.5t7.5 -18.5v-571q0 -145 103.5 -248t248.5 -103q139 0 239.5 98.5t106.5 237.5v586v4q0 2 4 10q0 2 2 2l6 6q8 4 15 5h4h2l4 -3l6 -6l2 -2q6 -6 6 -16v-920q0 -195 -137 -333t-334 -138q-106 0 -205 49q-25 10 -10 35q8 23 31 13 q90 -45 184 -45q174 0 297 122.5t123 296.5v152q-49 -94 -142 -149.5t-204 -55.5q-168 0 -286 118t-118 284z" />
<glyph unicode="z" horiz-adv-x="1134" d="M131 977q0 27 25 27h688q12 0 22 -7q6 -4 11 -16v-4v-4v-2l-3 -4q-2 -6 -10 -15l-659 -901h645q27 0 27 -24q0 -27 -27 -27h-694q-8 0 -11 2q-8 4 -10 6q-8 8 -8 16.5t8 16.5l664 909h-643q-25 0 -25 27z" />
<glyph unicode="{" horiz-adv-x="983" d="M113 588q0 39 49 39q150 0 204 64.5t54 195.5v162q0 172 84 267t327 144q43 8 43 -18q0 -18 -24 -27q-217 -57 -294 -139t-77 -240v-153q0 -129 -54 -197t-159 -98q111 -37 162 -101.5t51 -193.5v-154q0 -158 77 -239.5t294 -139.5q25 -8 24 -28q0 -25 -43 -17 q-244 49 -327.5 144.5t-83.5 267.5v162q0 131 -54.5 195.5t-203.5 64.5q-49 0 -49 39z" />
<glyph unicode="|" horiz-adv-x="585" d="M248 -225v1822q0 45 26 45q33 0 33 -45v-1822q0 -45 -33 -45q-26 0 -26 45z" />
<glyph unicode="}" horiz-adv-x="983" d="M109 -268q0 20 24 28q217 57 294 139.5t77 239.5v154q0 129 51 193.5t162 101.5q-104 31 -158.5 98.5t-54.5 196.5v153q0 158 -77 240t-294 139q-25 8 -24 27q0 27 43 18q244 -49 327.5 -144t83.5 -267v-162q0 -131 54.5 -195.5t203.5 -64.5q49 0 49 -39t-49 -39 q-150 0 -204 -64.5t-54 -195.5v-162q0 -172 -84 -267.5t-327 -144.5q-43 -8 -43 17z" />
<glyph unicode="~" horiz-adv-x="942" d="M174 520q0 4 8 29q14 47 63.5 85t92.5 38q39 0 133 -39t129 -39q63 0 102 88q0 2 4.5 13.5t9.5 16.5t13 5q37 0 37 -35q0 -12 -4 -25q-45 -139 -162 -139q-37 0 -131 40t-131 40q-63 0 -98 -80q-12 -25 -33 -24q-33 -1 -33 26z" />
<glyph unicode="&#xa1;" horiz-adv-x="516" d="M190 27v1065q0 25 27 24q25 0 25 -24v-1065q0 -27 -25 -27q-27 0 -27 27zM190 1358v49q0 27 27 27q25 0 25 -27v-49q0 -10 -8.5 -17.5t-16.5 -7.5q-27 0 -27 25z" />
<glyph unicode="&#xa2;" horiz-adv-x="1189" d="M127 500q0 207 150.5 354t363.5 147q66 0 141 -20l41 80q4 10 14.5 14t18.5 0q10 -2 15.5 -12t2.5 -19l-40 -79q63 -25 127 -72q16 -16 2 -39q-12 -16 -35 -2q-59 43 -117 66l-408 -803q109 -63 238 -64q156 0 287 101q20 12 35 -7q14 -20 -2 -36q-141 -109 -320 -109 q-137 0 -260 70l-39 -76q0 -16 -20 -17q-8 0 -11 3q-25 8 -14 32l43 84q-98 70 -155.5 176.5t-57.5 227.5zM178 500q0 -109 49 -203t135 -156l398 793q-61 16 -119 16q-193 0 -328 -132t-135 -318z" />
<glyph unicode="&#xa3;" horiz-adv-x="1318" d="M135 -2q0 18 25 20l159 19v600h-135q-43 0 -47 12q-2 4 -2 10q0 29 49 29h135v262q0 238 134 371q119 119 307 119q248 0 409 -191q14 -18 15 -39q0 -10 -3 -15t-6.5 -5t-13.5 1t-14 1q-8 0 -17.5 9t-19.5 23.5t-12 16.5q-131 152 -338 152q-74 0 -149.5 -30t-118.5 -73 q-51 -51 -86 -146t-35 -192v-264h622q49 0 49 -29q0 -6 -1 -10t-4 -6t-5 -4t-8 -2h-9h-11h-11h-622v-600l778 -2q45 -8 49 -25q0 -18 -11 -21t-38 -3h-987q-27 0 -27 12z" />
<glyph unicode="&#xa5;" horiz-adv-x="1404" d="M119 1391q-20 20 6 34q18 16 35 -4l487 -669l486 669q18 18 36 4q23 -16 9 -34l-484 -660h303q12 0 21.5 -9t9.5 -22q0 -10 -9 -17t-22 -7h-325v-254h325q12 0 21.5 -10.5t9.5 -22.5q0 -27 -31 -27h-325v-335q0 -27 -25 -27q-27 0 -26 27v335h-324q-31 0 -31 27 q0 33 31 33h324v254h-324q-31 0 -31 24q0 31 31 31h301z" />
<glyph unicode="&#xa8;" horiz-adv-x="1024" d="M272 1304.5q0 28.5 20.5 49t49.5 20.5t48.5 -20.5t19.5 -49t-19.5 -49t-48.5 -20.5t-49.5 20.5t-20.5 49zM645 1304.5q0 28.5 20.5 49t49 20.5t49 -20.5t20.5 -49t-20.5 -49t-49 -20.5t-49 20.5t-20.5 49z" />
<glyph unicode="&#xa9;" horiz-adv-x="1699" d="M109 713v4q0 305 217 523t526 218t524 -216t215 -521v-4q0 -305 -217 -523.5t-526 -218.5t-524 216.5t-215 521.5zM170 713q0 -283 194.5 -481.5t483.5 -198.5t485.5 199.5t196.5 484.5v4q0 283 -194.5 481.5t-483.5 198.5t-485.5 -200t-196.5 -484v-4zM485 725v4 q0 158 108.5 272.5t266.5 114.5q147 0 264 -102q18 -14 19 -37q0 -18 -13.5 -30.5t-31.5 -12.5q-14 0 -33 14q-100 86 -207 86q-121 0 -202 -89t-81 -214v-4q0 -125 83 -215t202 -90q117 0 217 90q16 10 29 10q16 0 28.5 -12t12.5 -29q0 -20 -14 -30q-127 -111 -275 -111 q-158 0 -265.5 112.5t-107.5 272.5z" />
<glyph unicode="&#xaa;" horiz-adv-x="1267" d="M82 502q0 207 138 354.5t335 147.5q135 0 249 -76t173 -201v250q0 27 27 27q25 0 24 -27v-950q0 -27 -24 -27q-27 0 -27 27v249q-59 -125 -173 -200.5t-249 -75.5q-197 0 -335 147.5t-138 354.5zM133 501.5q0 -186.5 124 -318.5t298 -132t298 132t124 318.5t-124 317.5 t-298 131t-298 -131t-124 -317.5z" />
<glyph unicode="&#xab;" horiz-adv-x="1054" />
<glyph unicode="&#xad;" horiz-adv-x="835" d="M135 715q0 23 21 22h467q18 0 18 -22q0 -18 -18 -19h-467q-21 1 -21 19z" />
<glyph unicode="&#xae;" horiz-adv-x="851" d="M70 1094v2q0 147 104.5 252.5t251.5 105.5q150 0 253 -104.5t103 -251.5v-2q0 -147 -104.5 -253t-251.5 -106q-150 0 -253 105t-103 252zM90 1094q0 -141 96.5 -239.5t239.5 -98.5q141 0 238.5 99t97.5 241v2q0 141 -96.5 239.5t-239.5 98.5q-141 0 -238.5 -99.5 t-97.5 -240.5v-2zM285 872q0 -10 8 -10q10 0 10 10v197h125q6 -2 16 -4q37 -10 56 -31q33 -25 32 -69q0 -53 15 -78q8 -16 24 -17q4 0 4 2q6 0 7 9q-4 6 -10.5 6t-12.5 8q-8 20 -8 70q0 63 -62 98q-10 6 -24 10q41 12 66.5 46t25.5 79q0 53 -37 91t-90 38h-135h-2 q-8 0 -8 -8v-447zM303 1087v222h127q47 0 80 -32t33 -79q0 -45 -33 -78t-80 -33h-127z" />
<glyph unicode="&#xb0;" horiz-adv-x="921" d="M152 1143v4q0 133 90 216t215 83q123 0 214 -87t91 -212v-4q0 -123 -87 -211t-218 -88q-129 0 -217 88t-88 211zM197 1143q0 -104 74.5 -182t185 -78t185.5 77.5t75 182.5v4q0 104 -76 183t-184.5 79t-184 -79t-75.5 -183v-4z" />
<glyph unicode="&#xb2;" horiz-adv-x="1208" d="M98 10q-16 18 2 37l693 625q135 125 135 303q0 154 -107 272q-123 135 -301 135q-156 0 -274 -106l-72 -66q-20 -16 -37 0q-8 8 -7 19.5t9 17.5l72 68q133 119 309 119q203 0 340 -150q119 -135 119 -309q0 -205 -154 -340l-643 -584h772q25 0 25 -24q0 -10 -7 -18.5 t-18 -8.5h-827h-6h-2q-17 0 -21 10z" />
<glyph unicode="&#xb3;" horiz-adv-x="1249" d="M156 141q-18 18 0 37t37 0q127 -123 299 -123q178 0 301 125q125 123 125 301q0 174 -123 299q-127 123 -299 123q-16 0 -25 12l-2 3q-18 20 0 38l414 426h-633q-27 0 -27 27t27 27h694q27 0 27 -27q0 -8 -2 -12q-4 -8 -6 -11l-422 -432q174 -16 290 -137 q139 -139 139.5 -335.5t-139.5 -340.5q-143 -139 -337 -139h-2q-199 0 -336 139z" />
<glyph unicode="&#xb4;" horiz-adv-x="1024" d="M412 1231q0 10 8 22l127 191q25 37 57 37q18 0 25.5 -5.5t9.5 -14.5t2 -11q6 -10 -20 -37l-146 -158q-16 -18 -49 -30q-14 -8 -14 6z" />
<glyph unicode="&#xb8;" horiz-adv-x="1024" d="M348 -242q0 12 10 31l158 231h88l-133 -270q-20 -41 -53 -41q-25 0 -47.5 16.5t-22.5 32.5z" />
<glyph unicode="&#xb9;" horiz-adv-x="686" d="M68 1221q-12 23 10 34l287 170q23 16 36 -8q10 -23 -12 -35l-287 -172q-4 -2 -12 -2q-18 1 -22 13zM352 27v1378q0 10 8.5 18.5t16.5 8.5q27 0 26 -27v-1378q0 -27 -26 -27q-10 0 -17.5 8.5t-7.5 18.5z" />
<glyph unicode="&#xba;" horiz-adv-x="1280" d="M143 502q0 207 138.5 354.5t335 147.5t336 -147.5t139.5 -354.5t-139.5 -354.5t-336 -147.5t-335 147.5t-138.5 354.5zM195 501.5q0 -186.5 123.5 -318.5t298 -132t299 132t124.5 318.5t-124.5 318.5t-299 132t-298 -132t-123.5 -318.5z" />
<glyph unicode="&#xbf;" horiz-adv-x="1093" d="M115 217q-14 18 8 33q18 10 33 -8q51 -88 139 -140.5t194 -52.5q158 0 269.5 112.5t111.5 272.5q0 158 -112.5 270.5t-268.5 112.5q-25 0 -24 25v2v4v268q0 25 24 25q10 0 17.5 -7.5t7.5 -17.5v-250q168 -10 288 -135t120 -297q0 -180 -127 -307t-306 -127 q-119 0 -219 58.5t-155 158.5zM465 1362v47q0 25 24.5 25t24.5 -25v-47q0 -10 -7 -17.5t-18 -7.5q-24 0 -24 25z" />
<glyph unicode="&#xc0;" horiz-adv-x="1329" d="M119 41q-10 -25 12 -35q2 0 6 -2h4q18 0 23 19l137 366h717l137 -366q10 -18 27 -19h2q4 2 6 2q25 12 14 35l-516 1376q-10 16 -26 17q-20 4 -27 -17zM322 442l337 897l338 -897h-675zM518 1860q0 2 2 11t9.5 14t25.5 5q33 0 57 -37l127 -190q8 -12 9 -23q0 -14 -15 -6 q-33 12 -49 31l-145 158q-27 27 -21 37z" />
<glyph unicode="&#xc1;" horiz-adv-x="1323" d="M119 41l516 1376q6 20 27 17q16 0 26 -17l516 -1376q10 -23 -14 -35q-2 0 -6 -2h-2q-16 0 -27 19l-137 366h-717l-137 -366q-4 -18 -23 -19h-4q-4 2 -6 2q-22 10 -12 35zM322 442h675l-338 897zM590 1640q0 10 8 23l127 190q25 37 57 37q18 0 25.5 -5t9.5 -14t2 -11 q6 -10 -20 -37l-146 -158q-16 -18 -49 -31q-14 -8 -14 6z" />
<glyph unicode="&#xc2;" horiz-adv-x="1359" d="M121 41q-10 -25 12 -35q2 0 6 -2h4q18 0 23 19l137 366h717l137 -366q10 -18 27 -19h4q2 2 4 2q25 12 14 35l-516 1376q-10 16 -26 17q-20 4 -27 -17zM324 442l338 897l337 -897h-675zM453 1642q0 12 10 25l147 180q31 37 58 37h16q27 0 57 -37l148 -180q10 -12 10 -25 q0 -8 -12 -6q-8 2 -15 2q-16 0 -55 39l-143 154l-142 -156q-37 -37 -51 -37z" />
<glyph unicode="&#xc3;" horiz-adv-x="1359" d="M121 41q-10 -25 12 -35q2 0 6 -2h4q18 0 23 19l137 366h717l137 -366q10 -18 27 -19h4q2 2 4 2q25 12 14 35l-516 1376q-10 16 -26 17q-20 4 -27 -17zM324 442l338 897l337 -897h-675zM369 1645q0 4 8 28q14 47 63 85t92 38q41 0 135.5 -39t127.5 -39q63 0 102 88 q0 2 4 13.5t9 16.5t14 5q37 0 37 -35q0 -12 -5 -24q-45 -139 -161 -140q-37 0 -131.5 40t-131.5 40q-63 0 -98 -80q-12 -25 -33 -24q-32 0 -32 27z" />
<glyph unicode="&#xc4;" horiz-adv-x="1357" d="M121 41q-10 -25 12 -35q2 0 6 -2h4q18 0 23 19l137 366h717l137 -366q10 -18 27 -19h4q2 2 4 2q25 12 14 35l-516 1376q-10 16 -26 17q-20 4 -27 -17zM324 442l338 897l337 -897h-675zM406 1714.5q0 28.5 20 49t49 20.5t48.5 -20.5t19.5 -49t-19.5 -49t-48.5 -20.5 t-49 20.5t-20 49zM778 1714.5q0 28.5 20.5 49t49.5 20.5t49.5 -20.5t20.5 -49t-20.5 -49t-49.5 -20.5t-49.5 20.5t-20.5 49z" />
<glyph unicode="&#xc5;" horiz-adv-x="1323" d="M94 39l494 1319q-53 14 -87 58t-34 100v2q0 72 49 115.5t116.5 43.5t117 -46t49.5 -113v-2q0 -53 -32 -97.5t-83 -58.5l496 -1321q10 -23 -15 -35h-6l-2 -2q-16 0 -27 18l-137 367h-717l-137 -367q-4 -18 -22 -18l-4 2h-7q-22 10 -12 35zM297 440h676l-338 897zM516 1513 q0 -39 24.5 -71.5t63.5 -40.5q20 -4 29 -4q18 0 35 6q37 10 59.5 42t22.5 68v3q0 45 -34 80.5t-83 35.5t-83 -35.5t-34 -80.5v-3z" />
<glyph unicode="&#xc6;" horiz-adv-x="2140" d="M86 39q33 68 817 1362q20 33 53 33h1018q49 0 49 -29t-49 -29h-887v-620h795q49 0 49 -33t-49 -33h-795v-631h898q49 0 49 -28q0 -31 -49 -31h-906q-23 0 -38 16.5t-15 36.5v369h-641l-246 -406q-14 -23 -39 -18q-26 4 -14 41zM420 477h606v901h-65z" />
<glyph unicode="&#xc7;" horiz-adv-x="1579" d="M150 729q0 299 218 512t525 213q260 0 465 -158q23 -18 8 -36q-23 -23 -39 -5q-188 145 -434 146q-285 0 -487.5 -196.5t-202.5 -475.5q0 -281 202.5 -478.5t487.5 -197.5q244 0 432 146q23 14 39 -4q16 -16 -6 -37q-211 -158 -465 -158q-307 2 -525 215t-218 514z M676 -242q0 12 10 31l158 231h88l-133 -270q-20 -41 -54 -41q-25 0 -47 16.5t-22 32.5z" />
<glyph unicode="&#xc8;" horiz-adv-x="1214" d="M213 27q0 -27 25 -27h4h2h757q25 0 25 27q0 25 -25 24h-737v641h649q25 0 25 27q0 25 -25 24h-649v639h737q25 0 25 25q0 27 -25 27h-759h-2h-2q-25 -4 -25 -27v-1380zM455 1860q0 2 2 11t9 14t26 5q33 0 57 -37l127 -190q8 -12 8 -23q0 -14 -14 -6q-33 12 -49 31 l-146 158q-26 27 -20 37z" />
<glyph unicode="&#xc9;" horiz-adv-x="1214" d="M213 27v1380q0 23 25 27h2h2h759q25 0 25 -27q0 -25 -25 -25h-737v-639h649q25 0 25 -24q0 -27 -25 -27h-649v-641h737q25 0 25 -24q0 -27 -25 -27h-757h-2h-4q-25 0 -25 27zM514 1640q0 10 8 23l127 190q25 37 58 37q18 0 25 -5t9 -14t2 -11q6 -10 -20 -37l-145 -158 q-16 -18 -50 -31q-14 -8 -14 6z" />
<glyph unicode="&#xca;" horiz-adv-x="1214" d="M213 27q0 -27 25 -27h4h2h757q25 0 25 27q0 25 -25 24h-737v641h649q25 0 25 27q0 25 -25 24h-649v639h737q25 0 25 25q0 27 -25 27h-759h-2h-2q-25 -4 -25 -27v-1380zM397 1642q0 12 11 25l147 180q31 37 57 37h17q27 0 57 -37l148 -180q10 -12 10 -25q0 -8 -13 -6 q-8 2 -14 2q-16 0 -55 39l-144 154l-141 -156q-37 -37 -51 -37z" />
<glyph unicode="&#xcb;" horiz-adv-x="1372" d="M213 27q0 -27 25 -27h4h2h757q25 0 25 27q0 25 -25 24h-737v641h649q25 0 25 27q0 25 -25 24h-649v639h737q25 0 25 25q0 27 -25 27h-759h-2h-2q-25 -4 -25 -27v-1380zM360 1714.5q0 28.5 20.5 49t49.5 20.5t48.5 -20.5t19.5 -49t-19.5 -49t-48.5 -20.5t-49.5 20.5 t-20.5 49zM733 1714.5q0 28.5 20.5 49t49 20.5t49 -20.5t20.5 -49t-20.5 -49t-49 -20.5t-49 20.5t-20.5 49z" />
<glyph unicode="&#xcc;" horiz-adv-x="712" d="M309 1860q0 2 2 11t9.5 14t25.5 5q33 0 57 -37l127 -190q8 -12 9 -23q0 -14 -15 -6q-33 12 -49 31l-145 158q-27 27 -21 37zM395 27q0 -27 27 -27q25 0 24 27v1380q0 27 -24 27q-27 0 -27 -27v-1380z" />
<glyph unicode="&#xcd;" horiz-adv-x="561" d="M170 1640q0 10 8 23l127 190q25 37 57 37q18 0 25.5 -5t9.5 -14t2 -11q6 -10 -20 -37l-146 -158q-16 -18 -49 -31q-14 -8 -14 6zM262 27v1380q0 27 27 27q25 0 24 -27v-1380q0 -27 -24 -27q-27 0 -27 27z" />
<glyph unicode="&#xce;" horiz-adv-x="561" d="M2 1642q0 12 10 25l148 180q31 37 57 37h16q27 0 58 -37l147 -180q10 -12 11 -25q0 -8 -13 -6q-8 2 -14 2q-16 0 -55 39l-144 154l-141 -156q-37 -37 -51 -37zM201 27q0 -27 26 -27q25 0 25 27v1380q0 27 -25 27q-27 0 -26 -27v-1380z" />
<glyph unicode="&#xcf;" horiz-adv-x="561" d="M-16 1714.5q0 28.5 20.5 49t49 20.5t48 -20.5t19.5 -49t-19.5 -49t-48 -20.5t-49 20.5t-20.5 49zM215 27q0 -27 27 -27q25 0 24 27v1380q0 27 -24 27q-27 0 -27 -27v-1380zM356 1714.5q0 28.5 20.5 49t49.5 20.5t49.5 -20.5t20.5 -49t-20.5 -49t-49.5 -20.5t-49.5 20.5 t-20.5 49z" />
<glyph unicode="&#xd0;" horiz-adv-x="1662" d="M113 721q0 23 20 22h205v664q0 27 27 27h274q297 0 507 -210t210 -505q0 -299 -210 -509t-507 -210h-274q-27 0 -27 27v675h-205q-20 1 -20 19zM389 51h250q276 4 470 197.5t196 470.5q-2 274 -196 468.5t-470 194.5h-250v-639h211q18 0 18 -22q0 -18 -18 -19h-211v-651z " />
<glyph unicode="&#xd1;" horiz-adv-x="1617" d="M213 27q0 -10 8 -18.5t19 -8.5q25 0 24 27v1300l942 -1309q0 -2 2 -2q6 -16 25 -16q25 0 24 27v1370q0 27 -24 26q-10 0 -18.5 -8t-8.5 -18v-1291l-946 1315q-14 16 -37 4q-10 -10 -10 -22v-6v-1370zM442 1645q0 4 9 28q14 47 63 85t92 38q41 0 135.5 -39t126.5 -39 q63 0 103 88q0 2 4 13.5t9 16.5t13 5q37 0 37 -35q0 -12 -4 -24q-45 -139 -162 -140q-37 0 -131 40t-131 40q-63 0 -98 -80q-12 -25 -33 -24q-33 0 -33 27z" />
<glyph unicode="&#xd2;" horiz-adv-x="1740" d="M150 715q2 -309 204.5 -525.5t493.5 -216.5t493.5 216.5t206.5 525.5q-4 307 -207.5 523t-492.5 216q-291 0 -493.5 -216t-204.5 -523zM205 715q0 285 189.5 485.5t453.5 200.5t452.5 -201t190.5 -485q-2 -283 -190.5 -482.5t-452.5 -203.5q-266 4 -454.5 203.5 t-188.5 482.5zM737 1860q0 2 2 11t9.5 14t25.5 5q33 0 57 -37l127 -190q8 -12 9 -23q0 -14 -15 -6q-33 12 -49 31l-145 158q-27 27 -21 37z" />
<glyph unicode="&#xd3;" horiz-adv-x="1740" d="M150 715q2 307 204.5 523t493.5 216q289 0 492.5 -216t207.5 -523q-4 -309 -206.5 -525.5t-493.5 -216.5t-493.5 216.5t-204.5 525.5zM205 715q0 -283 188.5 -482.5t454.5 -203.5q264 4 452.5 203.5t190.5 482.5q-2 285 -190.5 485.5t-452.5 200.5t-453.5 -200.5 t-189.5 -485.5zM733 1640q0 10 8 23l127 190q25 37 58 37q18 0 25 -5t9.5 -14t2.5 -11q6 -10 -21 -37l-145 -158q-16 -18 -49 -31q-15 -8 -15 6z" />
<glyph unicode="&#xd4;" horiz-adv-x="1740" d="M150 715q2 -309 204.5 -525.5t493.5 -216.5t493.5 216.5t206.5 525.5q-4 307 -207.5 523t-492.5 216q-291 0 -493.5 -216t-204.5 -523zM205 715q0 285 189.5 485.5t453.5 200.5t452.5 -201t190.5 -485q-2 -283 -190.5 -482.5t-452.5 -203.5q-266 4 -454.5 203.5 t-188.5 482.5zM627 1642q0 12 10 25l147 180q31 37 58 37h16q27 0 57 -37l148 -180q10 -12 10 -25q0 -8 -12 -6q-8 2 -14 2q-16 0 -56 39l-143 154l-141 -156q-37 -37 -52 -37z" />
<glyph unicode="&#xd5;" horiz-adv-x="1740" d="M150 715q2 -309 204.5 -525.5t493.5 -216.5t493.5 216.5t206.5 525.5q-4 307 -207.5 523t-492.5 216q-291 0 -493.5 -216t-204.5 -523zM205 715q0 285 189.5 485.5t453.5 200.5t452.5 -201t190.5 -485q-2 -283 -190.5 -482.5t-452.5 -203.5q-266 4 -454.5 203.5 t-188.5 482.5zM555 1645q0 4 8 28q14 47 63.5 85t92.5 38q39 0 133 -39t129 -39q63 0 102 88q0 2 4.5 13.5t9.5 16.5t13 5q37 0 37 -35q0 -12 -4 -24q-45 -139 -162 -140q-37 0 -131 40t-131 40q-63 0 -98 -80q-12 -25 -33 -24q-33 0 -33 27z" />
<glyph unicode="&#xd6;" horiz-adv-x="1740" d="M150 715q2 -309 204.5 -525.5t493.5 -216.5t493.5 216.5t206.5 525.5q-4 307 -207.5 523t-492.5 216q-291 0 -493.5 -216t-204.5 -523zM205 715q0 285 189.5 485.5t453.5 200.5t452.5 -201t190.5 -485q-2 -283 -190.5 -482.5t-452.5 -203.5q-266 4 -454.5 203.5 t-188.5 482.5zM592 1714.5q0 28.5 20.5 49t49 20.5t48 -20.5t19.5 -49t-19.5 -49t-48 -20.5t-49 20.5t-20.5 49zM965 1714.5q0 28.5 20.5 49t49 20.5t49 -20.5t20.5 -49t-20.5 -49t-49 -20.5t-49 20.5t-20.5 49z" />
<glyph unicode="&#xd7;" horiz-adv-x="1269" d="M205 339.5q0 20.5 16 37.5l346 342l-344 340q-18 18 -18 40.5t14 37t37 14.5t41 -18l340 -345l342 347q16 16 36.5 16t35 -14.5t14.5 -35t-16 -36.5l-347 -342l345 -340q18 -18 18 -41t-14.5 -37t-37 -14t-40.5 18l-340 344l-342 -346q-16 -16 -37 -16t-35 14t-14 34.5z " />
<glyph unicode="&#xd8;" horiz-adv-x="1740" d="M150 715q2 307 204.5 523t493.5 216q289 0 492.5 -216t207.5 -523q-4 -309 -206.5 -525.5t-493.5 -216.5t-493.5 216.5t-204.5 525.5zM205 715q0 -283 188.5 -482.5t454.5 -203.5q264 4 452.5 203.5t190.5 482.5q-2 285 -190.5 485.5t-452.5 200.5t-453.5 -200.5 t-189.5 -485.5zM207 29q-18 14 0 37l1237 1282q6 8 17.5 9t19.5 -7q20 -16 4 -37l-1243 -1284q-10 -12 -27 -6q-8 0 -8 6z" />
<glyph unicode="&#xd9;" horiz-adv-x="1556" d="M190 575q0 -240 168 -407.5t405.5 -167.5t406.5 168t169 407v832q0 10 -8 18.5t-18 8.5q-27 0 -27 -27v-832q-2 -217 -154.5 -368.5t-367.5 -155.5q-217 4 -369.5 155.5t-152.5 368.5v832q0 27 -25 27q-27 0 -27 -27v-832zM541 1860q0 2 2 11t9 14t26 5q33 0 57 -37 l127 -190q8 -12 8 -23q0 -14 -14 -6q-33 12 -49 31l-146 158q-26 27 -20 37z" />
<glyph unicode="&#xda;" horiz-adv-x="1556" d="M190 575v832q0 27 27 27q25 0 25 -27v-832q0 -217 152.5 -368.5t369.5 -155.5q215 4 367.5 155.5t154.5 368.5v832q0 27 27 27q10 0 18 -8.5t8 -18.5v-832q0 -240 -169 -407.5t-406.5 -167.5t-405.5 167.5t-168 407.5zM612 1640q0 10 9 23l127 190q25 37 57 37 q18 0 25.5 -5t9.5 -14t2 -11q6 -10 -21 -37l-145 -158q-16 -18 -49 -31q-15 -8 -15 6z" />
<glyph unicode="&#xdb;" horiz-adv-x="1556" d="M190 575q0 -240 168 -407.5t405.5 -167.5t406.5 168t169 407v832q0 10 -8 18.5t-18 8.5q-27 0 -27 -27v-832q-2 -217 -154.5 -368.5t-367.5 -155.5q-217 4 -369.5 155.5t-152.5 368.5v832q0 27 -25 27q-27 0 -27 -27v-832zM471 1642q0 12 10 25l148 180q31 37 57 37h16 q27 0 58 -37l147 -180q10 -12 11 -25q0 -8 -13 -6q-8 2 -14 2q-16 0 -55 39l-144 154l-141 -156q-37 -37 -51 -37z" />
<glyph unicode="&#xdc;" horiz-adv-x="1556" d="M190 575q0 -240 168 -407.5t405.5 -167.5t406.5 168t169 407v832q0 10 -8 18.5t-18 8.5q-27 0 -27 -27v-832q-2 -217 -154.5 -368.5t-367.5 -155.5q-217 4 -369.5 155.5t-152.5 368.5v832q0 27 -25 27q-27 0 -27 -27v-832zM508 1714.5q0 28.5 20.5 49t49 20.5t48 -20.5 t19.5 -49t-19.5 -49t-48 -20.5t-49 20.5t-20.5 49zM881 1714.5q0 28.5 20.5 49t49 20.5t49 -20.5t20.5 -49t-20.5 -49t-49 -20.5t-49 20.5t-20.5 49z" />
<glyph unicode="&#xdd;" horiz-adv-x="1466" d="M121 1391q-20 20 6 34q18 16 35 -4l487 -669l486 669q18 18 36 4q23 -16 9 -34l-506 -691v-673q0 -27 -25 -27q-27 0 -26 27v673zM578 1640q0 10 8 23l127 190q25 37 57 37q18 0 25.5 -5t9.5 -14t2 -11q6 -10 -21 -37l-145 -158q-16 -18 -49 -31q-14 -8 -14 6z" />
<glyph unicode="&#xdf;" horiz-adv-x="1269" d="M193 20v21v983q0 217 124.5 354.5t325.5 130.5q182 -6 295 -106t113 -252v-4q0 -137 -105.5 -237.5t-249.5 -151.5q186 -33 317.5 -125t129.5 -246q-2 -170 -146.5 -276.5t-367.5 -114.5q-43 0 -43 33q0 39 41 43q188 10 315 92t127 223q0 129 -124 206t-308 101 q-51 6 -51 49q0 37 41 52q358 125 358 356q0 117 -104.5 208t-239.5 91q-152 0 -267.5 -125t-115.5 -301v-983q0 -49 -39 -49q-10 0 -16 3t-8 12t-2 13z" />
<glyph unicode="&#xe0;" horiz-adv-x="1175" d="M129 502q0 207 138.5 354.5t334.5 147.5q135 0 249 -76t173 -201v250q0 27 27 27q25 0 24 -27v-950q0 -27 -24 -27q-27 0 -27 27v249q-59 -125 -173 -200.5t-249 -75.5q-197 0 -335 147.5t-138 354.5zM180 501.5q0 -186.5 124 -318.5t298 -132t298 132t124 318.5 t-124 317.5t-298 131t-298 -131t-124 -317.5zM492 1399q0 2 2 11t9 14.5t25 5.5q33 0 58 -37l127 -191q8 -12 8 -22q0 -12 -14 -6q-33 12 -50 30l-145 158q-26 27 -20 37z" />
<glyph unicode="&#xe1;" horiz-adv-x="1175" d="M129 502q0 207 138.5 354.5t334.5 147.5q135 0 249 -76t173 -201v250q0 27 27 27q25 0 24 -27v-950q0 -27 -24 -27q-27 0 -27 27v249q-59 -125 -173 -200.5t-249 -75.5q-197 0 -335 147.5t-138 354.5zM180 501.5q0 -186.5 124 -318.5t298 -132t298 132t124 318.5 t-124 317.5t-298 131t-298 -131t-124 -317.5zM487 1180q0 10 9 22l127 191q25 37 57 37q18 0 25.5 -5.5t9.5 -14.5t2 -11q6 -10 -21 -37l-145 -158q-16 -18 -49 -30q-15 -6 -15 6z" />
<glyph unicode="&#xe2;" horiz-adv-x="1175" d="M129 502q0 207 138.5 354.5t334.5 147.5q135 0 249 -76t173 -201v250q0 27 27 27q25 0 24 -27v-950q0 -27 -24 -27q-27 0 -27 27v249q-59 -125 -173 -200.5t-249 -75.5q-197 0 -335 147.5t-138 354.5zM180 501.5q0 -186.5 124 -318.5t298 -132t298 132t124 318.5 t-124 317.5t-298 131t-298 -131t-124 -317.5zM436 1178q0 12 10 24l148 180q31 37 57 37h17q27 0 57 -37l147 -180q10 -12 11 -24q0 -8 -13 -7q-8 2 -14 3q-16 0 -55 38l-144 154l-141 -156q-37 -37 -51 -36z" />
<glyph unicode="&#xe3;" horiz-adv-x="1175" d="M129 502q0 207 138.5 354.5t334.5 147.5q135 0 249 -76t173 -201v250q0 27 27 27q25 0 24 -27v-950q0 -27 -24 -27q-27 0 -27 27v249q-59 -125 -173 -200.5t-249 -75.5q-197 0 -335 147.5t-138 354.5zM180 501.5q0 -186.5 124 -318.5t298 -132t298 132t124 318.5 t-124 317.5t-298 131t-298 -131t-124 -317.5zM309 1194q0 4 8 29q14 47 63.5 85t92.5 38q39 0 133 -39t129 -39q63 0 103 88q0 2 4 13t9 16.5t13 5.5q37 0 37 -35q0 -12 -4 -25q-45 -139 -162 -139q-37 0 -131 40t-131 40q-63 0 -98 -80q-12 -25 -33 -25q-33 0 -33 27z" />
<glyph unicode="&#xe4;" horiz-adv-x="1175" d="M129 502q0 207 138.5 354.5t334.5 147.5q135 0 249 -76t173 -201v250q0 27 27 27q25 0 24 -27v-950q0 -27 -24 -27q-27 0 -27 27v249q-59 -125 -173 -200.5t-249 -75.5q-197 0 -335 147.5t-138 354.5zM180 501.5q0 -186.5 124 -318.5t298 -132t298 132t124 318.5 t-124 317.5t-298 131t-298 -131t-124 -317.5zM346 1255.5q0 28.5 20.5 49t49 20.5t48 -20.5t19.5 -49t-19.5 -49t-48 -20.5t-49 20.5t-20.5 49zM719 1255.5q0 28.5 20.5 49t49 20.5t49 -20.5t20.5 -49t-20.5 -49t-49 -20.5t-49 20.5t-20.5 49z" />
<glyph unicode="&#xe5;" horiz-adv-x="1175" d="M104 502q0 207 138.5 354.5t335.5 147.5q135 0 248.5 -76t172.5 -201v250q0 27 27 27q25 0 25 -27v-950q0 -27 -25 -27q-27 0 -27 27v249q-59 -125 -172.5 -200.5t-248.5 -75.5q-197 0 -335.5 147.5t-138.5 354.5zM156 501.5q0 -186.5 123.5 -318.5t298 -132t298 132 t123.5 318.5t-123.5 317.5t-298 131t-298 -131t-123.5 -317.5zM414 1331v2q0 72 49 116t116.5 44t116.5 -46t49 -114v-2q0 -68 -47 -116t-118 -48q-70 0 -118 48t-48 116zM463 1329q0 -45 33.5 -81t83 -36t83 36t33.5 81v2q0 45 -33.5 81t-83 36t-83 -36t-33.5 -81v-2z" />
<glyph unicode="&#xe6;" horiz-adv-x="1953" d="M104 502q0 207 138.5 355.5t335.5 148.5q137 0 250.5 -76t172.5 -201v250q0 27 27 27q25 0 25 -27v-287q55 139 176 224t270 85q190 0 328.5 -133t152.5 -329v-2v-5v-2q-4 -25 -24 -24h-891v-6q0 -182 127 -314.5t307 -134.5q113 0 208 55.5t153 149.5q12 16 36 6 q20 -12 7 -35q-66 -102 -173.5 -164.5t-230.5 -62.5q-147 2 -268 88t-178 221v-282q0 -27 -25 -27q-27 0 -27 27v249q-59 -125 -172.5 -200.5t-250.5 -75.5q-197 0 -335.5 147.5t-138.5 354.5zM156 501.5q0 -186.5 123.5 -318.5t298.5 -132q176 0 299.5 132t123.5 318.5 t-123.5 318.5t-299.5 132q-174 0 -298 -132t-124 -318.5zM1067 555h862q-20 168 -143 280.5t-287 112.5q-166 0 -289 -112.5t-143 -280.5z" />
<glyph unicode="&#xe7;" horiz-adv-x="1169" d="M119 502q0 207 151.5 354.5t364.5 147.5q182 0 319 -109q16 -16 2 -39q-12 -16 -34 -2q-127 98 -287 98q-195 0 -330 -132t-135 -318.5t135 -318.5t330 -132q156 0 287 101q20 12 34 -7q14 -20 -2 -36q-141 -109 -319 -109q-213 2 -364.5 148.5t-151.5 353.5zM432 -242 q0 12 10 31l158 231h88l-133 -270q-20 -41 -53 -41q-25 0 -47.5 16.5t-22.5 32.5z" />
<glyph unicode="&#xe8;" horiz-adv-x="1247" d="M119 502q4 -207 145.5 -353.5t341.5 -148.5q123 0 230.5 62.5t173.5 164.5q14 23 -6 35q-25 10 -37 -6q-57 -94 -152.5 -149.5t-208.5 -55.5q-180 2 -308 134t-128 317v6h893q20 0 24 24v3v4v2q-14 197 -152 330t-329 133q-201 0 -342 -146.5t-145 -355.5zM172 557 q20 168 144 280.5t290 112.5q164 0 287 -112.5t143 -280.5h-864zM492 1399q0 2 2 11t9 14.5t25 5.5q33 0 58 -37l127 -191q8 -12 8 -22q0 -12 -14 -6q-33 12 -50 30l-145 158q-26 27 -20 37z" />
<glyph unicode="&#xe9;" horiz-adv-x="1247" d="M119 502q4 209 145.5 355.5t341.5 146.5q190 0 328.5 -133.5t152.5 -329.5v-2v-4v-3q-4 -25 -24 -24h-893v-6q0 -184 128 -316.5t308 -134.5q113 0 208 55.5t153 149.5q12 16 37 6q20 -12 6 -35q-66 -102 -173.5 -164.5t-230.5 -62.5q-201 2 -342 148.5t-145 353.5z M172 557h864q-20 168 -143 280.5t-287 112.5q-166 0 -290 -112.5t-144 -280.5zM485 1180q0 10 9 22l127 191q25 37 57 37q18 0 25.5 -5.5t9.5 -14.5t2 -11q6 -10 -21 -37l-145 -158q-16 -18 -49 -30q-15 -6 -15 6z" />
<glyph unicode="&#xea;" horiz-adv-x="1247" d="M119 502q4 -207 145.5 -353.5t341.5 -148.5q123 0 230.5 62.5t173.5 164.5q14 23 -6 35q-25 10 -37 -6q-57 -94 -152.5 -149.5t-208.5 -55.5q-180 2 -308 134t-128 317v6h893q20 0 24 24v3v4v2q-14 197 -152 330t-329 133q-201 0 -342 -146.5t-145 -355.5zM172 557 q20 168 144 280.5t290 112.5q164 0 287 -112.5t143 -280.5h-864zM381 1178q0 12 10 24l148 180q31 37 57 37h16q27 0 58 -37l147 -180q10 -12 10 -24q0 -8 -12 -7q-8 2 -14 3q-16 0 -56 38l-143 154l-141 -156q-37 -37 -51 -36z" />
<glyph unicode="&#xeb;" horiz-adv-x="1196" d="M125 502q4 -207 145.5 -353.5t341.5 -148.5q123 0 230.5 62.5t173.5 164.5q14 23 -6 35q-25 10 -37 -6q-57 -94 -152.5 -149.5t-208.5 -55.5q-180 2 -308 134t-128 317v6h893q20 0 25 24v3v4v2q-14 197 -152.5 330t-329.5 133q-201 0 -342 -146.5t-145 -355.5zM178 557 q20 168 144 280.5t290 112.5q164 0 287 -112.5t143 -280.5h-864zM352 1237q0 29 20.5 49.5t49.5 20.5t48 -20.5t19 -49.5t-19 -49.5t-48 -20.5t-49.5 20.5t-20.5 49.5zM725 1237q0 29 20.5 49.5t49 20.5t49 -20.5t20.5 -49.5t-20.5 -49.5t-49 -20.5t-49 20.5t-20.5 49.5z " />
<glyph unicode="&#xec;" horiz-adv-x="575" d="M109 1399q0 2 2 11t9 14.5t25 5.5q33 0 58 -37l127 -191q8 -12 8 -22q0 -12 -14 -6q-33 12 -50 30l-145 158q-26 27 -20 37zM195 27q0 -27 26 -27q10 0 17.5 8t7.5 19v952q0 25 -25 25q-27 0 -26 -25v-952z" />
<glyph unicode="&#xed;" horiz-adv-x="575" d="M102 1180q0 10 9 22l127 191q25 37 57 37q18 0 25.5 -5.5t9.5 -14.5t2 -11q6 -10 -21 -37l-145 -158q-16 -18 -49 -30q-15 -6 -15 6zM195 27v952q0 25 26 25q25 0 25 -25v-952q0 -10 -7.5 -18.5t-17.5 -8.5q-26 0 -26 27z" />
<glyph unicode="&#xee;" horiz-adv-x="575" d="M18 1178q0 12 11 24l147 180q31 37 57 37h17q27 0 57 -37l148 -180q10 -12 10 -24q0 -8 -12 -7q-8 2 -15 3q-16 0 -55 38l-143 154l-142 -156q-37 -37 -51 -36zM217 27q0 -27 27 -27q10 0 17 8t7 19v952q0 25 -24 25q-27 0 -27 -25v-952z" />
<glyph unicode="&#xef;" horiz-adv-x="575" d="M-12 1237q0 29 20.5 49.5t49 20.5t48 -20.5t19.5 -49.5t-19.5 -49.5t-48 -20.5t-49 20.5t-20.5 49.5zM219 27q0 -27 27 -27q10 0 17 8t7 19v952q0 25 -24 25q-27 0 -27 -25v-952zM360 1237q0 29 20.5 49.5t49.5 20.5t49.5 -20.5t20.5 -49.5t-20.5 -49.5t-49.5 -20.5 t-49.5 20.5t-20.5 49.5z" />
<glyph unicode="&#xf1;" d="M193 23q0 -6 4 -11q0 -2 2 -4q4 -4 6 -4l2 -2q2 -2 4 -2h4h4q12 0 19 10q6 6 6 17v571q0 147 104.5 250.5t249.5 103.5t248.5 -103.5t103.5 -250.5v-571q0 -27 25 -27q27 0 26 27v571q0 168 -118.5 287t-284.5 119q-113 0 -207 -57.5t-147 -151.5v184q0 25 -25 25 q-27 0 -26 -25v-365v-16v-571v-4zM301 1194q0 4 8 29q14 47 63.5 85t92.5 38q39 0 133 -39t129 -39q63 0 102 88q0 2 4.5 13t9.5 16.5t13 5.5q37 0 37 -35q0 -12 -4 -25q-45 -139 -162 -139q-37 0 -131 40t-131 40q-63 0 -98 -80q-12 -25 -33 -25q-33 0 -33 27z" />
<glyph unicode="&#xf2;" horiz-adv-x="1310" d="M119 502q0 -207 138 -354.5t334.5 -147.5t336 147.5t139.5 354.5t-139.5 354.5t-336 147.5t-334.5 -147.5t-138 -354.5zM170 501.5q0 186.5 124 318.5t298 132t299 -132t125 -318.5t-125 -318.5t-299 -132t-298 132t-124 318.5zM481 1399q0 2 2 11t9.5 14.5t25.5 5.5 q33 0 57 -37l127 -191q8 -12 9 -22q0 -12 -15 -6q-33 12 -49 30l-145 158q-27 27 -21 37z" />
<glyph unicode="&#xf3;" horiz-adv-x="1310" d="M119 502q0 207 138 354.5t334.5 147.5t336 -147.5t139.5 -354.5t-139.5 -354.5t-336 -147.5t-334.5 147.5t-138 354.5zM170 501.5q0 -186.5 124 -318.5t298 -132t299 132t125 318.5t-125 318.5t-299 132t-298 -132t-124 -318.5zM473 1180q0 10 8 22l127 191q25 37 58 37 q18 0 25 -5.5t9 -14.5t2 -11q6 -10 -20 -37l-145 -158q-16 -18 -50 -30q-14 -6 -14 6z" />
<glyph unicode="&#xf4;" horiz-adv-x="1310" d="M119 502q0 -207 138 -354.5t334.5 -147.5t336 147.5t139.5 354.5t-139.5 354.5t-336 147.5t-334.5 -147.5t-138 -354.5zM170 501.5q0 186.5 124 318.5t298 132t299 -132t125 -318.5t-125 -318.5t-299 -132t-298 132t-124 318.5zM367 1178q0 12 10 24l147 180q31 37 58 37 h16q27 0 57 -37l148 -180q10 -12 10 -24q0 -8 -12 -7q-8 2 -15 3q-16 0 -55 38l-143 154l-142 -156q-37 -37 -51 -36z" />
<glyph unicode="&#xf5;" horiz-adv-x="1310" d="M119 502q0 -207 138 -354.5t334.5 -147.5t336 147.5t139.5 354.5t-139.5 354.5t-336 147.5t-334.5 -147.5t-138 -354.5zM170 501.5q0 186.5 124 318.5t298 132t299 -132t125 -318.5t-125 -318.5t-299 -132t-298 132t-124 318.5zM297 1194q0 4 8 29q14 47 63.5 85t92.5 38 q39 0 133 -39t129 -39q63 0 102 88q0 2 4.5 13t9.5 16.5t13 5.5q37 0 37 -35q0 -12 -4 -25q-45 -139 -162 -139q-37 0 -131 40t-131 40q-63 0 -99 -80q-12 -25 -32 -25q-33 0 -33 27z" />
<glyph unicode="&#xf6;" horiz-adv-x="1310" d="M119 502q0 -207 138 -354.5t334.5 -147.5t336 147.5t139.5 354.5t-139.5 354.5t-336 147.5t-334.5 -147.5t-138 -354.5zM170 501.5q0 186.5 124 318.5t298 132t299 -132t125 -318.5t-125 -318.5t-299 -132t-298 132t-124 318.5zM336 1237q0 29 20.5 49.5t49 20.5 t48 -20.5t19.5 -49.5t-19.5 -49.5t-48 -20.5t-49 20.5t-20.5 49.5zM709 1237q0 29 20.5 49.5t49 20.5t49 -20.5t20.5 -49.5t-20.5 -49.5t-49 -20.5t-49 20.5t-20.5 49.5z" />
<glyph unicode="&#xf7;" horiz-adv-x="1269" d="M131 720.5q0 -20.5 14.5 -34.5t34.5 -14h910q20 0 34.5 14t14.5 34.5t-14.5 35t-34.5 14.5h-910q-20 0 -34.5 -14.5t-14.5 -35zM561 323.5q0 38.5 27.5 66.5t66.5 28t67 -28t28 -66.5t-28 -66.5t-67 -28t-66.5 28t-27.5 66.5zM561 1120q0 39 27.5 66.5t66.5 27.5 t67 -27.5t28 -66.5t-28 -66.5t-67 -27.5t-66.5 27.5t-27.5 66.5z" />
<glyph unicode="&#xf8;" horiz-adv-x="1310" d="M119 502q0 207 138 354.5t334.5 147.5t336 -147.5t139.5 -354.5t-139.5 -354.5t-336 -147.5t-334.5 147.5t-138 354.5zM164 -23q-18 18 2 39l858 945q6 6 16.5 7t18.5 -7q20 -16 4 -35l-864 -946q-6 -14 -27 -7l-4 2zM170 501.5q0 -186.5 124 -318.5t298 -132t299 132 t125 318.5t-125 318.5t-299 132t-298 -132t-124 -318.5z" />
<glyph unicode="&#xf9;" d="M170 406q0 -168 118 -287t283 -119q168 0 287 119t119 287v571q0 27 -27 27q-10 0 -18 -8.5t-8 -18.5v-571q0 -147 -103.5 -251t-249 -104t-248 103.5t-102.5 251.5v571q0 10 -7 18.5t-17 8.5q-27 0 -27 -27v-571zM395 1399q0 2 2 11t9.5 14.5t25.5 5.5q33 0 57 -37 l127 -191q8 -12 9 -22q0 -12 -15 -6q-33 12 -49 30l-145 158q-27 27 -21 37z" />
<glyph unicode="&#xfa;" d="M170 406v571q0 27 27 27q10 0 17 -8.5t7 -18.5v-571q0 -147 102.5 -251t248 -104t249 103.5t103.5 251.5v571q0 10 8 18.5t18 8.5q27 0 27 -27v-571q0 -168 -119 -287t-287 -119q-166 0 -283.5 119t-117.5 287zM467 1180q0 10 8 22l127 191q25 37 57 37q18 0 25.5 -5.5 t9.5 -14.5t2 -11q6 -10 -20 -37l-146 -158q-16 -18 -49 -30q-14 -6 -14 6z" />
<glyph unicode="&#xfb;" d="M170 406q0 -168 118 -287t283 -119q168 0 287 119t119 287v571q0 27 -27 27q-10 0 -18 -8.5t-8 -18.5v-571q0 -147 -103.5 -251t-249 -104t-248 103.5t-102.5 251.5v571q0 10 -7 18.5t-17 8.5q-27 0 -27 -27v-571zM326 1178q0 12 10 24l147 180q31 37 58 37h16 q27 0 57 -37l148 -180q10 -12 10 -24q0 -8 -12 -7q-8 2 -15 3q-16 0 -55 38l-143 154l-141 -156q-37 -37 -52 -36z" />
<glyph unicode="&#xfc;" d="M170 406q0 -168 118 -287t283 -119q168 0 287 119t119 287v571q0 27 -27 27q-10 0 -18 -8.5t-8 -18.5v-571q0 -147 -103.5 -251t-249 -104t-248 103.5t-102.5 251.5v571q0 10 -7 18.5t-17 8.5q-27 0 -27 -27v-571zM319 1237q0 29 20.5 49.5t49.5 20.5t48.5 -20.5 t19.5 -49.5t-19.5 -49.5t-48.5 -20.5t-49.5 20.5t-20.5 49.5zM692 1237q0 29 20.5 49.5t49.5 20.5t49 -20.5t20 -49.5t-20 -49.5t-49 -20.5t-49.5 20.5t-20.5 49.5z" />
<glyph unicode="&#xfd;" horiz-adv-x="1204" d="M106 406v571q0 27 27 27q10 0 17.5 -8.5t7.5 -18.5v-571q0 -145 103.5 -248t248.5 -103q139 0 239.5 98.5t106.5 237.5v586v4q0 2 4 10q0 2 2 2l6 6q8 4 15 5h4h2l4 -3l6 -6l2 -2q6 -6 6 -16v-920q0 -195 -137 -333t-334 -138q-106 0 -205 49q-25 10 -10 35q8 23 31 13 q90 -45 184 -45q174 0 297 122.5t123 296.5v152q-49 -94 -142 -149.5t-204 -55.5q-168 0 -286 118t-118 284zM469 1180q0 10 8 22l127 191q25 37 58 37q18 0 25 -5.5t9 -14.5t2 -11q6 -10 -20 -37l-146 -158q-16 -18 -49 -30q-14 -6 -14 6z" />
<glyph unicode="&#xff;" horiz-adv-x="1204" d="M106 406q0 -166 118 -284t286 -118q111 0 204 55.5t142 149.5v-152q0 -174 -123 -296.5t-297 -122.5q-94 0 -184 45q-23 10 -31 -13q-14 -25 10 -35q98 -49 205 -49q197 0 334 138.5t137 332.5v920q0 10 -6 16q0 2 -2 2l-6 6l-2 3h-4h-4q-6 0 -15 -5l-6 -6l-2 -2 q-4 -8 -4 -10v-4v-586q-6 -139 -106.5 -237.5t-239.5 -98.5q-145 0 -248.5 102.5t-103.5 248.5v571q0 10 -7.5 18.5t-17.5 8.5q-27 0 -27 -27v-571zM248 1237q0 29 20.5 49.5t49 20.5t48 -20.5t19.5 -49.5t-19.5 -49.5t-48 -20.5t-49 20.5t-20.5 49.5zM621 1237 q0 29 20.5 49.5t49 20.5t49 -20.5t20.5 -49.5t-20.5 -49.5t-49 -20.5t-49 20.5t-20.5 49.5z" />
<glyph unicode="&#x152;" horiz-adv-x="2955" d="M150 715q2 307 204.5 523t493.5 216q225 0 404.5 -137t254.5 -356v446q0 23 25 27h764q25 0 24 -27q0 -25 -24 -25h-737v-639h649q25 0 24 -24q0 -27 -24 -27h-649v-641h737q25 0 24 -24q0 -27 -24 -27h-764q-25 0 -25 27v440q-76 -219 -255 -356.5t-404 -137.5 q-291 0 -493.5 216.5t-204.5 525.5zM205 715q0 -283 188.5 -482.5t454.5 -203.5q264 4 452.5 203.5t190.5 482.5q-2 285 -190.5 485.5t-452.5 200.5t-453.5 -200.5t-189.5 -485.5z" />
<glyph unicode="&#x153;" horiz-adv-x="2160" d="M119 502q0 207 138 354.5t335 147.5q158 0 283.5 -100.5t171.5 -256.5q47 156 174 255t288 99q190 0 328.5 -133t153.5 -329v-9q-4 -25 -25 -24h-891v-6q0 -182 127 -314.5t307 -134.5q113 0 208 55.5t153 149.5q12 16 37 6q20 -12 6 -35q-66 -102 -173.5 -164.5 t-230.5 -62.5q-160 2 -287.5 102.5t-174.5 253.5q-45 -156 -171 -256t-284 -100q-197 0 -335 147.5t-138 354.5zM170 501.5q0 -186.5 124 -318.5t298 -132t299 132t125 318.5t-125 318.5t-299 132t-298 -132t-124 -318.5zM1077 555h862q-20 168 -143 280.5t-287 112.5 q-166 0 -289 -112.5t-143 -280.5z" />
<glyph unicode="&#x178;" horiz-adv-x="1466" d="M121 1391l502 -691v-673q0 -27 26 -27q25 0 25 27v673l506 691q14 18 -9 34q-18 14 -36 -4l-486 -669l-487 669q-16 20 -35 4q-26 -14 -6 -34zM401 1591.5q0 28.5 20.5 49t49.5 20.5t49.5 -20.5t20.5 -49t-20.5 -49t-49.5 -20.5t-49.5 20.5t-20.5 49zM772 1591.5 q0 28.5 20.5 49t49 20.5t49 -20.5t20.5 -49t-20.5 -49t-49 -20.5t-49 20.5t-20.5 49z" />
<glyph unicode="&#x2c6;" horiz-adv-x="1024" d="M289 1233q0 12 10 24l147 181q31 37 58 37h16q27 0 58 -37l147 -181q10 -12 10 -24q0 -8 -12 -6q-8 2 -14 2q-16 0 -56 39l-143 153l-141 -155q-37 -37 -52 -37z" />
<glyph unicode="&#x2dc;" horiz-adv-x="1024" d="M215 1235q0 4 8 29q14 47 63.5 84.5t92.5 37.5q39 0 133 -38.5t129 -38.5q63 0 102 88q0 2 4.5 13t9.5 16.5t13 5.5q37 0 37 -35q0 -12 -4 -25q-45 -139 -162 -139q-37 0 -131 40t-131 40q-63 0 -98 -80q-12 -25 -33 -25q-33 0 -33 27z" />
<glyph unicode="&#x2000;" horiz-adv-x="944" />
<glyph unicode="&#x2001;" horiz-adv-x="1890" />
<glyph unicode="&#x2002;" horiz-adv-x="944" />
<glyph unicode="&#x2003;" horiz-adv-x="1890" />
<glyph unicode="&#x2004;" horiz-adv-x="628" />
<glyph unicode="&#x2005;" horiz-adv-x="471" />
<glyph unicode="&#x2006;" horiz-adv-x="313" />
<glyph unicode="&#x2007;" horiz-adv-x="313" />
<glyph unicode="&#x2008;" horiz-adv-x="235" />
<glyph unicode="&#x2009;" horiz-adv-x="376" />
<glyph unicode="&#x200a;" horiz-adv-x="104" />
<glyph unicode="&#x2010;" horiz-adv-x="835" d="M135 715q0 23 21 22h467q18 0 18 -22q0 -18 -18 -19h-467q-21 1 -21 19z" />
<glyph unicode="&#x2011;" horiz-adv-x="835" d="M135 715q0 23 21 22h467q18 0 18 -22q0 -18 -18 -19h-467q-21 1 -21 19z" />
<glyph unicode="&#x2012;" horiz-adv-x="835" d="M135 715q0 23 21 22h467q18 0 18 -22q0 -18 -18 -19h-467q-21 1 -21 19z" />
<glyph unicode="&#x2013;" horiz-adv-x="1081" d="M135 608q0 41 53 41h705q53 0 53 -41q0 -35 -53 -35h-705q-27 -2 -40 9.5t-13 25.5z" />
<glyph unicode="&#x2014;" horiz-adv-x="1839" d="M135 608q0 41 53 41h879q53 0 53 -41q0 -35 -53 -35h-879q-27 -2 -40 9.5t-13 25.5z" />
<glyph unicode="&#x2018;" horiz-adv-x="471" d="M158 1110v51q0 158 55 213q66 66 106 66q31 0 31 -31q0 -16 -16 -27q-104 -57 -96 -157q55 -14 55 -72v-43q0 -29 -19.5 -48.5t-48 -19.5t-48 19.5t-19.5 48.5z" />
<glyph unicode="&#x2019;" horiz-adv-x="471" d="M121 1075q0 16 16 27q104 57 96 158q-55 14 -55 71v43q0 27 19.5 47.5t48 20.5t48 -20.5t19.5 -47.5v-51q0 -158 -55 -213q-66 -66 -106 -66q-31 0 -31 31z" />
<glyph unicode="&#x201a;" horiz-adv-x="471" />
<glyph unicode="&#x201c;" horiz-adv-x="829" d="M150 1110v51q0 158 55 213q66 66 106 66q31 0 31 -31q0 -16 -16 -27q-104 -57 -97 -157q55 -14 56 -72v-43q0 -29 -19.5 -48.5t-48.5 -19.5t-48 19.5t-19 48.5zM518 1110v51q0 158 55 213q66 66 107 66q31 0 31 -31q0 -16 -17 -27q-104 -57 -96 -157q55 -14 55 -72v-43 q0 -29 -19.5 -48.5t-48 -19.5t-48 19.5t-19.5 48.5z" />
<glyph unicode="&#x201d;" horiz-adv-x="839" d="M121 1075q0 16 16 27q104 57 96 158q-55 14 -55 71v43q0 27 19.5 47.5t48 20.5t48 -20.5t19.5 -47.5v-51q0 -158 -55 -213q-66 -66 -106 -66q-31 0 -31 31zM489 1075q0 16 17 27q104 57 96 158q-55 14 -55 71v43q0 27 19.5 47.5t48 20.5t48 -20.5t19.5 -47.5v-51 q0 -158 -55 -213q-66 -66 -107 -66q-31 0 -31 31z" />
<glyph unicode="&#x201e;" horiz-adv-x="839" d="M111 -184q0 16 16 26q104 57 96 158q-55 14 -55 72v43q0 29 19.5 48t48 19t48 -19.5t19.5 -47.5v-52q0 -158 -55 -213q-66 -66 -107 -65q-30 0 -30 31zM479 -184q0 16 17 26q104 57 96 158q-55 14 -55 72v43q0 29 20.5 48t47 19t47 -19.5t20.5 -47.5v-52q0 -158 -56 -213 q-66 -66 -106 -65q-31 0 -31 31z" />
<glyph unicode="&#x2026;" horiz-adv-x="1392" d="M168 61.5q0 36.5 25.5 62.5t62.5 26t62.5 -26t25.5 -62.5t-25.5 -62.5t-62.5 -26t-62.5 26t-25.5 62.5zM600 61.5q0 36.5 25.5 62.5t62.5 26t62.5 -26t25.5 -62.5t-25.5 -62.5t-62.5 -26t-62.5 26t-25.5 62.5zM1032 61.5q0 36.5 25.5 62.5t62.5 26t62.5 -26t25.5 -62.5 t-25.5 -62.5t-62.5 -26t-62.5 26t-25.5 62.5z" />
<glyph unicode="&#x202f;" horiz-adv-x="376" />
<glyph unicode="&#x2039;" horiz-adv-x="636" d="M113 522.5q0 18.5 20 44.5l281 367q8 12 32.5 8t26.5 -20q2 -20 -8 -33l-289 -369l289 -364q10 -12 14 -25.5t-1 -25t-21 -11.5q-31 0 -43 19l-281 364q-20 27 -20 45.5z" />
<glyph unicode="&#x203a;" horiz-adv-x="636" d="M149.5 130q4.5 13 14.5 26l289 364l-289 369q-10 12 -8 33q2 16 26.5 20t32.5 -8l281 -367q20 -27 20 -45t-20 -45l-281 -364q-12 -18 -43 -19q-16 0 -21.5 11.5t-1 24.5z" />
<glyph unicode="&#x205f;" horiz-adv-x="471" />
<glyph unicode="&#x2122;" horiz-adv-x="1413" d="M45 1423.5q0 10.5 10 10.5h430q12 0 12.5 -10.5t-12.5 -10.5h-202v-586q0 -10 -10.5 -10t-10.5 10v586h-207q-10 0 -10 10.5zM610 827v594q0 12 11 13q2 0 4 -2q2 0 6 -2l239 -330l236 330h2q2 2 4 2q2 2 4 2q10 0 10 -13v-594q0 -10 -10 -10t-10 10v562l-225 -314 q-8 -4 -11 -4h-4q-4 0 -8 4l-227 314v-562q0 -10 -10.5 -10t-10.5 10z" />
<glyph unicode="&#xe000;" horiz-adv-x="1000" d="M0 1000h1000v-1000h-1000v1000z" />
<glyph unicode="&#xfb01;" horiz-adv-x="1316" d="M934 27v952q0 25 26 25q25 0 25 -25v-952q0 -10 -7.5 -18.5t-17.5 -8.5q-26 0 -26 27zM934 1251v49q0 27 26 27q25 0 25 -27v-49q0 -10 -7.5 -17t-17.5 -7q-26 -1 -26 24zM133 985q0 27 27 27h164v135q0 154 61 223q59 66 188 66q27 0 27 -25q0 -27 -27 -27 q-106 0 -149 -49q-47 -51 -47 -188v-135h172q25 0 24.5 -27t-24.5 -27h-172v-929q0 -27 -26.5 -27t-26.5 27v929h-164q-27 0 -27 27z" />
<glyph unicode="&#xfb02;" horiz-adv-x="1251" d="M946 27v1380q0 27 26 27q25 0 25 -27v-1380q0 -27 -25 -27q-26 0 -26 27zM133 985q0 27 27 27h164v135q0 154 61 223q59 66 188 66q27 0 27 -25q0 -27 -27 -27q-106 0 -149 -49q-47 -51 -47 -188v-135h172q25 0 24.5 -27t-24.5 -27h-172v-929q0 -27 -26.5 -27t-26.5 27 v929h-164q-27 0 -27 27z" />
<glyph unicode="&#xfb03;" horiz-adv-x="2058" d="M1676 27v952q0 25 26 25q25 0 25 -25v-952q0 -10 -7.5 -18.5t-17.5 -8.5q-26 0 -26 27zM1676 1251v49q0 27 26 27q25 0 25 -27v-49q0 -10 -7.5 -17t-17.5 -7q-26 -1 -26 24zM874 985q0 27 27 27h164v135q0 154 61 223q59 66 188 66q27 0 27 -25q0 -27 -27 -27 q-106 0 -149 -49q-47 -51 -47 -188v-135h172q25 0 24.5 -27t-24.5 -27h-172v-929q0 -27 -26.5 -27t-26.5 27v929h-164q-27 0 -27 27zM133 985q0 27 27 27h164v135q0 154 61 223q59 66 188 66q27 0 27 -25q0 -27 -27 -27q-106 0 -149 -49q-47 -51 -47 -188v-135h172 q25 0 24.5 -27t-24.5 -27h-172v-929q0 -27 -26.5 -27t-26.5 27v929h-164q-27 0 -27 27z" />
<glyph unicode="&#xfb04;" horiz-adv-x="1992" d="M1688 27v1380q0 27 26 27q25 0 25 -27v-1380q0 -27 -25 -27q-26 0 -26 27zM874 985q0 27 27 27h164v135q0 154 61 223q59 66 188 66q27 0 27 -25q0 -27 -27 -27q-106 0 -149 -49q-47 -51 -47 -188v-135h172q25 0 24.5 -27t-24.5 -27h-172v-929q0 -27 -26.5 -27t-26.5 27 v929h-164q-27 0 -27 27zM133 985q0 27 27 27h164v135q0 154 61 223q59 66 188 66q27 0 27 -25q0 -27 -27 -27q-106 0 -149 -49q-47 -51 -47 -188v-135h172q25 0 24.5 -27t-24.5 -27h-172v-929q0 -27 -26.5 -27t-26.5 27v929h-164q-27 0 -27 27z" />
</font>
</defs>
</svg>
